<?xml version="1.0" standalone="no"?>
<!DOCTYPE svg PUBLIC "-//W3C//DTD SVG 1.1//EN" "http://www.w3.org/Graphics/SVG/1.1/DTD/svg11.dtd" >
<svg xmlns="http://www.w3.org/2000/svg">
<metadata>
<json>
<![CDATA[
{
	"fontFamily": "Simple-Line-Icons-Pro",
	"majorVersion": 1,
	"minorVersion": 0,
	"version": "Version 1.0",
	"fontId": "Simple-Line-Icons-Pro",
	"psName": "Simple-Line-Icons-Pro",
	"subFamily": "Regular",
	"fullName": "Simple-Line-Icons-Pro",
	"description": "Font generated by IcoMoon."
}
]]>
</json>
</metadata>
<defs>
<font id="Simple-Line-Icons-Pro" horiz-adv-x="1024">
<font-face units-per-em="1024" ascent="960" descent="-64" />
<missing-glyph horiz-adv-x="1024" />
<glyph unicode="&#x20;" horiz-adv-x="512" d="" />
<glyph unicode="&#xe800;" glyph-name="arrow-1-circle-down" data-tags="arrow-1-circle-down" d="M512-64c-282.304 0-512 229.664-512 512 0 282.304 229.696 512 512 512s512-229.696 512-512c0-282.336-229.696-512-512-512zM512 896c-247.040 0-448-200.96-448-448s200.96-448 448-448c247.040 0 448 200.96 448 448s-200.96 448-448 448zM534.624 329.376c-6.24-6.24-14.432-9.376-22.624-9.376s-16.384 3.136-22.624 9.376l-192 192c-12.512 12.48-12.512 32.768 0 45.248 12.512 12.512 32.736 12.512 45.248 0l169.376-169.344 169.376 169.344c12.512 12.512 32.736 12.512 45.248 0 12.512-12.48 12.512-32.768 0-45.248l-192-192z" />
<glyph unicode="&#xe801;" glyph-name="arrow-1-circle-left" data-tags="arrow-1-circle-left" d="M512-64c-282.304 0-512 229.664-512 512 0 282.304 229.696 512 512 512s512-229.696 512-512c0-282.336-229.696-512-512-512zM512 896c-247.040 0-448-200.96-448-448s200.96-448 448-448c247.040 0 448 200.96 448 448s-200.96 448-448 448zM630.624 233.376c-6.24-6.24-14.432-9.376-22.624-9.376s-16.384 3.136-22.624 9.376l-192 192c-12.512 12.48-12.512 32.768 0 45.248l192 192c12.512 12.512 32.736 12.512 45.248 0 12.512-12.48 12.512-32.768 0-45.248l-169.376-169.376 169.376-169.376c12.512-12.48 12.512-32.768 0-45.248z" />
<glyph unicode="&#xe802;" glyph-name="arrow-1-circle-right" data-tags="arrow-1-circle-right" d="M512-64c-282.304 0-512 229.664-512 512 0 282.304 229.696 512 512 512s512-229.696 512-512c0-282.336-229.696-512-512-512zM512 896c-247.040 0-448-200.96-448-448s200.96-448 448-448c247.040 0 448 200.96 448 448s-200.96 448-448 448zM438.624 233.376c-6.24-6.24-14.432-9.376-22.624-9.376s-16.384 3.136-22.624 9.376c-12.512 12.48-12.512 32.768 0 45.248l169.376 169.376-169.376 169.376c-12.512 12.48-12.512 32.768 0 45.248 12.512 12.512 32.736 12.512 45.248 0l192-192c12.512-12.48 12.512-32.768 0-45.248l-192-192z" />
<glyph unicode="&#xe803;" glyph-name="arrow-1-circle-up" data-tags="arrow-1-circle-up" d="M512-64c-282.304 0-512 229.664-512 512 0 282.304 229.696 512 512 512s512-229.696 512-512c0-282.336-229.696-512-512-512zM512 896c-247.040 0-448-200.96-448-448s200.96-448 448-448c247.040 0 448 200.96 448 448s-200.96 448-448 448zM704 320c-8.192 0-16.384 3.136-22.624 9.376l-169.376 169.376-169.376-169.376c-12.512-12.512-32.736-12.512-45.248 0s-12.512 32.768 0 45.28l192 191.968c12.512 12.512 32.736 12.512 45.248 0l192-191.968c12.512-12.512 12.512-32.768 0-45.28-6.24-6.24-14.432-9.376-22.624-9.376z" />
<glyph unicode="&#xe804;" glyph-name="arrow-1-down" data-tags="arrow-1-down" d="M509.504 162.624c-8.8 0-17.184 3.648-23.2 10.080l-476.992 509.248c-12 12.832-11.36 32.96 1.44 44.992 12.832 12 32.96 11.392 44.96-1.44l453.792-484.512 453.792 484.512c12 12.8 32.128 13.472 44.96 1.44 12.8-12.032 13.44-32.16 1.44-44.992l-476.992-509.248c-6.016-6.432-14.4-10.080-23.2-10.080z" />
<glyph unicode="&#xe805;" glyph-name="arrow-1-left" data-tags="arrow-1-left" d="M764.8-61.568c-7.808 0-15.616 2.88-21.76 8.64l-509.28 478.464c-6.4 6.048-10.048 14.464-10.048 23.296 0 8.8 3.648 17.248 10.048 23.264l509.28 478.496c12.8 12.032 32.96 11.424 44.992-1.44s11.36-33.056-1.44-45.088l-484.512-455.232 484.512-455.232c12.8-12.032 13.472-32.224 1.44-45.088-6.272-6.688-14.752-10.080-23.232-10.080z" />
<glyph unicode="&#xe806;" glyph-name="arrow-1-right" data-tags="arrow-1-right" d="M255.84-61.568c-8.48 0-16.928 3.392-23.2 10.112-12.032 12.832-11.392 33.024 1.44 45.056l484.512 455.232-484.512 455.232c-12.832 12.032-13.472 32.224-1.44 45.056 12 12.896 32.16 13.536 44.992 1.472l509.248-478.496c6.432-6.016 10.080-14.464 10.080-23.264 0-8.832-3.648-17.248-10.080-23.296l-509.248-478.464c-6.144-5.76-13.984-8.64-21.792-8.64z" />
<glyph unicode="&#xe807;" glyph-name="arrow-1-square-down" data-tags="arrow-1-square-down" d="M992-64h-960c-17.664 0-32 14.336-32 32v960c0 17.664 14.336 32 32 32h960c17.664 0 32-14.336 32-32v-960c0-17.664-14.336-32-32-32zM960 896h-896v-896h896v896zM342.624 566.624l169.376-169.376 169.376 169.376c12.512 12.48 32.736 12.48 45.248 0s12.512-32.768 0-45.248l-192-192c-6.24-6.24-14.432-9.376-22.624-9.376s-16.384 3.136-22.624 9.376l-192 192c-12.512 12.48-12.512 32.768 0 45.248s32.736 12.48 45.248 0z" />
<glyph unicode="&#xe808;" glyph-name="arrow-1-square-left" data-tags="arrow-1-square-left" d="M992-64h-960c-17.664 0-32 14.336-32 32v960c0 17.664 14.336 32 32 32h960c17.664 0 32-14.336 32-32v-960c0-17.664-14.336-32-32-32zM960 896h-896v-896h896v896zM585.376 662.624c12.512 12.512 32.736 12.512 45.248 0 12.512-12.48 12.512-32.768 0-45.248l-169.376-169.376 169.376-169.376c12.512-12.48 12.512-32.768 0-45.248-6.24-6.24-14.432-9.376-22.624-9.376s-16.384 3.136-22.624 9.376l-192 192c-12.512 12.48-12.512 32.768 0 45.248l192 192z" />
<glyph unicode="&#xe809;" glyph-name="arrow-1-square-right" data-tags="arrow-1-square-right" d="M992-64h-960c-17.696 0-32 14.336-32 32v960c0 17.664 14.304 32 32 32h960c17.696 0 32-14.336 32-32v-960c0-17.664-14.304-32-32-32zM960 896h-896v-896h896v896zM393.376 662.624c12.512 12.512 32.736 12.512 45.248 0l192-192c12.512-12.48 12.512-32.768 0-45.248l-192-192c-6.24-6.24-14.432-9.376-22.624-9.376s-16.384 3.136-22.624 9.376c-12.512 12.48-12.512 32.768 0 45.248l169.376 169.376-169.376 169.376c-12.512 12.48-12.512 32.768 0 45.248z" />
<glyph unicode="&#xe80a;" glyph-name="arrow-1-square-up" data-tags="arrow-1-square-up" d="M992-64h-960c-17.664 0-32 14.336-32 32v960c0 17.664 14.336 32 32 32h960c17.664 0 32-14.336 32-32v-960c0-17.664-14.336-32-32-32zM960 896h-896v-896h896v896zM489.376 566.624c12.512 12.48 32.736 12.48 45.248 0l192-192c12.512-12.48 12.512-32.768 0-45.248-6.24-6.24-14.432-9.376-22.624-9.376s-16.384 3.136-22.624 9.376l-169.376 169.376-169.376-169.376c-12.512-12.512-32.736-12.512-45.248 0-12.512 12.48-12.512 32.768 0 45.248l192 192z" />
<glyph unicode="&#xe80b;" glyph-name="arrow-1-up" data-tags="arrow-1-up" d="M986.592 166.24c-8.448 0-16.928 3.36-23.168 10.016l-453.792 482.4-453.792-482.4c-12.032-12.768-32.16-13.408-44.96-1.44s-13.472 32.032-1.44 44.8l476.992 507.072c12 12.768 34.368 12.768 46.4 0l476.96-507.072c12.032-12.768 11.392-32.832-1.44-44.8-6.112-5.76-13.952-8.576-21.76-8.576z" />
<glyph unicode="&#xe80c;" glyph-name="arrow-2-circle-down" data-tags="arrow-2-circle-down" d="M512-64c-282.304 0-512 229.664-512 512s229.696 512 512 512c282.304 0 512-229.664 512-512s-229.696-512-512-512zM512 896c-247.040 0-448-200.96-448-448 0-247.008 200.96-448 448-448s448 200.992 448 448c0 247.040-200.96 448-448 448zM534.656 201.44c-2.944-2.976-6.496-5.344-10.432-6.976-3.904-1.632-8.064-2.464-12.224-2.464s-8.32 0.832-12.224 2.464c-3.936 1.632-7.488 4-10.432 6.976l-127.968 127.936c-12.512 12.48-12.512 32.768 0 45.248 12.512 12.512 32.736 12.512 45.248 0l73.376-73.376v370.752c0 17.664 14.336 32.032 32 32.032s32-14.368 32-32.032v-370.752l73.376 73.376c12.512 12.512 32.736 12.512 45.248 0 12.512-12.48 12.512-32.768 0-45.248l-127.968-127.936z" />
<glyph unicode="&#xe80d;" glyph-name="arrow-2-circle-left" data-tags="arrow-2-circle-left" d="M512-64c-282.304 0-512 229.664-512 512s229.696 512 512 512c282.304 0 512-229.664 512-512s-229.696-512-512-512zM512 896c-247.040 0-448-200.96-448-448 0-247.008 200.96-448 448-448s448 200.992 448 448c0 247.040-200.96 448-448 448zM736 416h-370.752l73.376-73.376c12.512-12.48 12.512-32.768 0-45.248-6.24-6.24-14.432-9.376-22.624-9.376s-16.384 3.136-22.624 9.376l-128 128c-2.944 2.944-5.28 6.464-6.912 10.4-3.232 7.808-3.232 16.64 0 24.448 1.632 3.936 4 7.488 6.976 10.464l127.936 127.936c12.512 12.512 32.736 12.512 45.248 0 12.512-12.48 12.512-32.736 0-45.248l-73.344-73.376h370.72c17.664 0 32-14.336 32-32s-14.336-32-32-32z" />
<glyph unicode="&#xe80e;" glyph-name="arrow-2-circle-right" data-tags="arrow-2-circle-right" d="M512-64c-282.304 0-512 229.664-512 512s229.696 512 512 512c282.304 0 512-229.664 512-512s-229.696-512-512-512zM512 896c-247.040 0-448-200.96-448-448 0-247.008 200.96-448 448-448s448 200.992 448 448c0 247.040-200.96 448-448 448zM765.536 435.776c-1.632-3.936-3.968-7.456-6.912-10.4l-128-128c-6.24-6.24-14.432-9.376-22.624-9.376s-16.384 3.136-22.624 9.376c-12.512 12.48-12.512 32.768 0 45.248l73.376 73.376h-370.752c-17.664 0-32 14.336-32 32s14.336 32 32 32h370.72l-73.344 73.376c-12.512 12.512-12.512 32.768 0 45.248 12.512 12.512 32.736 12.512 45.248 0l127.936-127.936c2.976-2.976 5.344-6.528 6.976-10.464 3.232-7.808 3.232-16.64 0-24.448z" />
<glyph unicode="&#xe80f;" glyph-name="arrow-2-circle-up" data-tags="arrow-2-circle-up" d="M512-64c-282.304 0-512 229.664-512 512s229.696 512 512 512c282.304 0 512-229.664 512-512s-229.696-512-512-512zM512 896c-247.040 0-448-200.96-448-448 0-247.008 200.96-448 448-448s448 200.992 448 448c0 247.040-200.96 448-448 448zM640 512c-8.192 0-16.384 3.136-22.624 9.376l-73.376 73.344v-370.72c0-17.664-14.336-32-32-32s-32 14.336-32 32v370.752l-73.376-73.376c-12.512-12.512-32.736-12.512-45.248 0-12.512 12.48-12.512 32.768 0 45.248l127.968 127.968c2.944 2.976 6.528 5.344 10.464 6.976 3.232 1.312 6.688 1.792 10.112 2.016 0.736 0.064 1.344 0.448 2.080 0.448 0.704 0 1.28-0.384 1.952-0.416 3.488-0.224 6.976-0.704 10.24-2.048 3.936-1.632 7.52-4 10.464-6.976l127.968-127.968c12.512-12.48 12.512-32.768 0-45.248-6.24-6.24-14.432-9.376-22.624-9.376z" />
<glyph unicode="&#xe810;" glyph-name="arrow-2-down" data-tags="arrow-2-down" d="M785.184 201.376l-253.504-255.968c-2.912-2.976-6.432-5.312-10.304-6.944-3.872-1.6-8-2.464-12.128-2.464-8.096 0-16.192 3.136-22.4 9.376l-253.504 256c-12.384 12.48-12.384 32.768 0 45.248 12.352 12.48 32.416 12.48 44.8 0l201.856-203.808v885.184c0 17.664 11.744 32 29.248 32 17.536 0 31.712-14.336 31.712-32v-882.752l199.424 201.376c12.384 12.48 32.416 12.48 44.8 0s12.384-32.768 0-45.248z" />
<glyph unicode="&#xe811;" glyph-name="arrow-2-left" data-tags="arrow-2-left" d="M989.024 418.016h-880.192l200.768-200.384c12.48-12.416 12.48-32.576 0-45.024-6.24-6.208-14.4-9.312-22.56-9.312s-16.32 3.104-22.56 9.312l-255.232 254.72c-2.944 2.944-5.312 6.464-6.912 10.368-1.632 3.904-2.464 8.032-2.464 12.192 0 0 0 0 0 0 0 0.032 0 0.064 0 0.096 0.032 4.128 0.864 8.192 2.464 12.064 1.6 3.904 3.968 7.424 6.912 10.368l255.232 254.72c12.48 12.448 32.672 12.448 45.12 0 12.48-12.416 12.48-32.576 0-45.024l-200.8-200.384h880.224c17.632 0 31.904-14.272 31.904-31.84 0-17.6-14.272-31.872-31.904-31.872z" />
<glyph unicode="&#xe812;" glyph-name="arrow-2-right" data-tags="arrow-2-right" d="M1020.704 449.92c0 0 0-0.032 0-0.032s0 0 0 0c0-4.16-0.832-8.288-2.464-12.192-1.6-3.904-3.968-7.424-6.944-10.368l-255.2-254.72c-6.208-6.208-14.4-9.312-22.56-9.312s-16.32 3.104-22.56 9.312c-12.448 12.448-12.448 32.608 0 45.056l200.8 200.352h-880.224c-17.6 0-31.904 14.272-31.904 31.872 0 17.568 14.304 31.84 31.904 31.84h880.224l-200.8 200.384c-12.448 12.448-12.448 32.608 0 45.056 12.48 12.416 32.672 12.416 45.12 0l255.232-254.752c2.976-2.944 5.312-6.464 6.944-10.368 1.6-3.872 2.432-8 2.432-12.128z" />
<glyph unicode="&#xe813;" glyph-name="arrow-2-sqare-down" data-tags="arrow-2-sqare-down" d="M992-64h-960c-17.696 0-32 14.336-32 32v960c0 17.664 14.304 32 32 32h960c17.696 0 32-14.336 32-32v-960c0-17.664-14.304-32-32-32zM960 896h-896v-896h896v896zM406.624 342.624l73.376-73.376v434.784c0 17.664 14.304 31.968 32 31.968s32-14.304 32-31.968v-434.784l73.376 73.376c12.512 12.512 32.736 12.512 45.248 0 12.512-12.48 12.512-32.768 0-45.248l-127.936-127.936c-2.976-2.976-6.528-5.344-10.464-6.976-3.904-1.632-8.064-2.464-12.224-2.464s-8.32 0.832-12.224 2.464c-3.936 1.632-7.488 4-10.464 6.976l-127.936 127.936c-12.512 12.48-12.512 32.768 0 45.248 12.512 12.512 32.736 12.512 45.248 0z" />
<glyph unicode="&#xe814;" glyph-name="arrow-2-sqare-left" data-tags="arrow-2-sqare-left" d="M992-64h-960c-17.664 0-32 14.336-32 32v960c0 17.664 14.336 32 32 32h960c17.664 0 32-14.336 32-32v-960c0-17.664-14.336-32-32-32zM960 896h-896v-896h896v896zM226.464 460.224c1.632 3.936 4 7.488 6.976 10.464l127.936 127.936c12.512 12.512 32.736 12.512 45.248 0 12.512-12.48 12.512-32.736 0-45.248l-73.344-73.376h434.72c17.664 0 32-14.336 32-32s-14.336-32-32-32h-434.752l73.376-73.376c12.512-12.48 12.512-32.768 0-45.248-6.24-6.24-14.432-9.376-22.624-9.376s-16.384 3.136-22.624 9.376l-128 128c-2.944 2.944-5.28 6.464-6.912 10.4-3.232 7.808-3.232 16.64 0 24.448z" />
<glyph unicode="&#xe815;" glyph-name="arrow-2-sqare-right" data-tags="arrow-2-sqare-right" d="M992-64h-960c-17.664 0-32 14.336-32 32v960c0 17.664 14.336 32 32 32h960c17.664 0 32-14.336 32-32v-960c0-17.664-14.336-32-32-32zM960 896h-896v-896h896v896zM256 480h434.72l-73.344 73.376c-12.512 12.512-12.512 32.768 0 45.248 12.512 12.512 32.736 12.512 45.248 0l127.936-127.936c2.976-2.976 5.344-6.528 6.976-10.464 3.232-7.808 3.232-16.64 0-24.448-1.632-3.936-3.968-7.456-6.912-10.4l-128-128c-6.24-6.24-14.432-9.376-22.624-9.376s-16.384 3.136-22.624 9.376c-12.512 12.48-12.512 32.768 0 45.248l73.376 73.376h-434.752c-17.664 0-32 14.336-32 32s14.336 32 32 32z" />
<glyph unicode="&#xe816;" glyph-name="arrow-2-sqare-up" data-tags="arrow-2-sqare-up" d="M992-64h-960c-17.664 0-32 14.336-32 32v960c0 17.664 14.336 32 32 32h960c17.664 0 32-14.336 32-32v-960c0-17.664-14.336-32-32-32zM960 896h-896v-896h896v896zM489.344 726.592c2.944 2.976 6.496 5.312 10.432 6.944 7.808 3.232 16.64 3.232 24.448 0 3.936-1.632 7.488-4 10.432-6.944l127.968-127.968c12.512-12.48 12.512-32.736 0-45.248-6.24-6.24-14.432-9.376-22.624-9.376s-16.384 3.136-22.624 9.376l-73.376 73.344v-434.72c0-17.664-14.336-32-32-32s-32 14.336-32 32v434.752l-73.376-73.376c-12.512-12.512-32.736-12.512-45.248 0s-12.512 32.768 0 45.248l127.968 127.968z" />
<glyph unicode="&#xe817;" glyph-name="arrow-2-up" data-tags="arrow-2-up" d="M784.416 650.624c-6.176-6.208-14.304-9.344-22.4-9.344-8.128 0-16.224 3.136-22.4 9.344l-199.424 200.8v-880.224c0-17.6-14.208-31.904-31.712-31.904s-29.472 13.952-29.472 31.584v882.752l-201.632-203.008c-12.384-12.48-32.448-12.48-44.832 0-12.352 12.448-12.352 32.672 0 45.12l253.536 255.264c0.16 0.192 0.416 0.224 0.576 0.384 5.056 5.44 12.288 8.64 21.024 8.832 4.416 0.096 8.8-0.608 12.928-2.336 3.808-1.6 7.264-3.904 10.144-6.784 0.032-0.032 0.096-0.032 0.128-0.096h0.032c0 0 0 0 0 0l253.504-255.264c12.384-12.448 12.384-32.672 0-45.12z" />
<glyph unicode="&#xe818;" glyph-name="arrow-3-circle-down" data-tags="arrow-3-circle-down" d="M512-64c-282.304 0-512 229.696-512 512s229.696 512 512 512c282.304 0 512-229.696 512-512s-229.696-512-512-512zM512 896c-247.040 0-448-200.96-448-448s200.96-448 448-448c247.040 0 448 200.96 448 448s-200.96 448-448 448zM320 480h96v160h192v-160h96l-192-224-192 224z" />
<glyph unicode="&#xe819;" glyph-name="arrow-3-circle-left" data-tags="arrow-3-circle-left" d="M512-64c-282.304 0-512 229.696-512 512s229.696 512 512 512c282.304 0 512-229.696 512-512s-229.696-512-512-512zM512 896c-247.040 0-448-200.96-448-448 0-247.008 200.96-448 448-448s448 200.992 448 448c0 247.040-200.96 448-448 448zM544 256l-224 192 224 192v-96h160v-192h-160v-96z" />
<glyph unicode="&#xe81a;" glyph-name="arrow-3-circle-right" data-tags="arrow-3-circle-right" d="M512-64c-282.304 0-512 229.696-512 512s229.696 512 512 512c282.304 0 512-229.696 512-512s-229.696-512-512-512zM512 896c-247.040 0-448-200.96-448-448 0-247.008 200.96-448 448-448s448 200.992 448 448c0 247.040-200.96 448-448 448zM480 352h-160v192h160v96l224-192-224-192v96z" />
<glyph unicode="&#xe81b;" glyph-name="arrow-3-circle-up" data-tags="arrow-3-circle-up" d="M512-64c-282.304 0-512 229.696-512 512s229.696 512 512 512c282.304 0 512-229.696 512-512s-229.696-512-512-512zM512 896c-247.040 0-448-200.96-448-448s200.96-448 448-448c247.040 0 448 200.96 448 448s-200.96 448-448 448zM608 256h-192v160h-96l192 224 192-224h-96v-160z" />
<glyph unicode="&#xe81c;" glyph-name="arrow-3-down" data-tags="arrow-3-down" d="M884.736 363.328l-350.112-416c-6.048-7.2-14.944-11.328-24.288-11.328s-18.24 4.128-24.288 11.328l-350.080 416c-8.032 9.504-9.792 22.848-4.608 34.144 5.216 11.296 16.512 18.528 28.896 18.528h190.944v512.032c0 17.632 14.272 31.968 31.84 31.968h255.616c17.568 0 31.808-14.336 31.808-31.968v-512.032h189.952c12.416 0 23.68-7.232 28.896-18.528 5.184-11.296 3.424-24.64-4.576-34.144zM637.632 352c-17.568 0-31.808 14.336-31.808 32 0 1.76 0.704 3.264 0.992 4.96v507.040h-191.968v-512c0-17.664-14.24-32-31.808-32h-154.176l281.472-334.432 281.472 334.432h-154.176z" />
<glyph unicode="&#xe81d;" glyph-name="arrow-3-left" data-tags="arrow-3-left" d="M992 289.92h-512v-191.552c0-12.448-7.232-23.744-18.528-28.992-4.32-1.984-8.896-2.944-13.472-2.944-7.424 0-14.784 2.56-20.672 7.552l-416 351.040c-7.2 6.048-11.328 14.976-11.328 24.352s4.128 18.304 11.328 24.352l416 351.040c9.504 8.032 22.816 9.856 34.144 4.608 11.296-5.216 18.528-16.544 18.528-28.96v-191.488h512c17.664 0 32-14.272 32-31.904v-256.288c0-17.6-14.336-30.816-32-30.816zM960 545.12h-512c-17.664 0-32 14.304-32 31.904v154.592l-334.464-282.24 334.464-282.208v154.56c0 17.632 14.336 31.904 32 31.904 1.76 0 3.264-0.704 4.928-0.992h507.072v192.48z" />
<glyph unicode="&#xe81e;" glyph-name="arrow-3-right" data-tags="arrow-3-right" d="M1012.672 425.024l-416-351.040c-5.888-4.96-13.248-7.584-20.672-7.584-4.576 0-9.152 0.992-13.472 2.976-11.296 5.248-18.528 16.544-18.528 28.992v191.552h-512c-17.664 0-32 13.216-32 30.816v256.288c0 17.632 14.336 31.904 32 31.904h512v191.488c0 12.416 7.232 23.744 18.528 28.96 11.328 5.248 24.64 3.424 34.144-4.608l416-351.040c7.2-6.048 11.328-14.976 11.328-24.352s-4.128-18.304-11.328-24.352zM608 731.616v-154.592c0-17.6-14.336-31.904-32-31.904h-512v-192.48h507.072c1.664 0.288 3.168 0.992 4.928 0.992 17.664 0 32-14.272 32-31.904v-154.56l334.464 282.208-334.464 282.24z" />
<glyph unicode="&#xe81f;" glyph-name="arrow-3-square-down" data-tags="arrow-3-square-down" d="M992-64h-960c-17.696 0-32 14.336-32 32v960c0 17.664 14.304 32 32 32h960c17.696 0 32-14.336 32-32v-960c0-17.664-14.304-32-32-32zM960 896h-896v-896h896v896zM416 640h192v-160h96l-192-224-192 224h96v160z" />
<glyph unicode="&#xe820;" glyph-name="arrow-3-square-left" data-tags="arrow-3-square-left" d="M992-64h-960c-17.664 0-32 14.336-32 32v960c0 17.664 14.336 32 32 32h960c17.664 0 32-14.336 32-32v-960c0-17.664-14.336-32-32-32zM960 896h-896v-896h896v896zM544 544h160v-192h-160v-96l-224 192 224 192v-96z" />
<glyph unicode="&#xe821;" glyph-name="arrow-3-square-right" data-tags="arrow-3-square-right" d="M992-64h-960c-17.664 0-32 14.336-32 32v960c0 17.664 14.336 32 32 32h960c17.664 0 32-14.336 32-32v-960c0-17.664-14.336-32-32-32zM960 896h-896v-896h896v896zM480 640l224-192-224-192v96h-160v192h160v96z" />
<glyph unicode="&#xe822;" glyph-name="arrow-3-square-up" data-tags="arrow-3-square-up" d="M992-64h-960c-17.664 0-32 14.336-32 32v960c0 17.664 14.336 32 32 32h960c17.664 0 32-14.336 32-32v-960c0-17.664-14.336-32-32-32zM960 896h-896v-896h896v896zM704 416h-96v-160h-192v160h-96l192 224 192-224z" />
<glyph unicode="&#xe823;" glyph-name="arrow-3-up" data-tags="arrow-3-up" d="M889.28 500.384c-5.216-11.264-16.48-18.496-28.864-18.496h-189.952v-510.56c0-17.632-14.272-31.904-31.84-31.904h-255.616c-17.568 0-31.808 14.272-31.808 31.904v510.56h-190.976c-12.384 0-23.648 7.232-28.864 18.496s-3.424 24.544 4.576 34.048l350.112 414.816c12.096 14.368 36.48 14.368 48.576 0l350.080-414.816c8.032-9.504 9.792-22.784 4.576-34.048zM510.336 879.232l-281.472-333.504h154.144c17.6 0 31.84-14.304 31.84-31.904v-510.592h191.968v505.664c-0.288 1.664-0.992 3.168-0.992 4.928 0 17.6 14.24 31.904 31.808 31.904h154.176l-281.472 333.504z" />
<glyph unicode="&#xe824;" glyph-name="back-1" data-tags="back-1" d="M989.12 417.6h-880.224l168.896-168.448c12.448-12.416 12.448-32.576 0-44.992-6.24-6.24-14.4-9.344-22.56-9.344-8.192 0-16.352 3.104-22.56 9.344l-223.328 222.752c-2.976 2.944-5.312 6.464-6.944 10.368-1.568 3.776-2.336 7.776-2.368 11.776 0 0.128-0.096 0.256-0.096 0.384 0 0 0 0 0 0 0 4.16 0.864 8.288 2.464 12.192 1.632 3.872 3.968 7.392 6.912 10.336 0 0 0 0 0 0l223.36 222.752c12.448 12.448 32.64 12.448 45.12 0 12.448-12.384 12.448-32.576 0-44.992l-168.896-168.448h848.288v190.976c0 17.568 14.304 31.808 31.936 31.808 17.6 0 31.904-14.24 31.904-31.808v-222.816c0-17.568-14.304-31.84-31.904-31.84z" />
<glyph unicode="&#xe825;" glyph-name="back-2" data-tags="back-2" d="M989.056 194.816c-17.6 0-31.904 14.272-31.904 31.84v190.944h-848.288l168.864-168.448c12.48-12.416 12.48-32.576 0-44.992-6.208-6.208-14.4-9.344-22.56-9.344s-16.32 3.136-22.56 9.344l-223.296 222.752c-2.976 2.944-5.312 6.464-6.944 10.368-1.6 3.904-2.464 8.032-2.464 12.16 0 0 0 0 0 0 0 0.032 0.032 0.064 0.032 0.064 0 4.128 0.832 8.224 2.432 12.096 1.632 3.904 3.968 7.456 6.944 10.368l223.296 222.752c12.48 12.448 32.672 12.448 45.12 0 12.48-12.384 12.48-32.576 0-44.992l-168.896-168.448h880.224c17.632 0 31.904-14.272 31.904-31.84v-222.784c0-17.568-14.272-31.84-31.904-31.84z" />
<glyph unicode="&#xe826;" glyph-name="back-3" data-tags="back-3" d="M989.024 98.944c-17.632 0-31.904 14.272-31.904 31.872v223.072c0 105.44-85.888 191.232-191.456 191.232h-656.864l136.992-136.8c12.448-12.448 12.448-32.64 0-45.088-6.24-6.208-14.4-9.344-22.56-9.344s-16.32 3.136-22.56 9.344l-191.456 191.232c-2.944 2.944-5.28 6.464-6.88 10.368-1.6 3.808-2.368 7.84-2.432 11.904 0 0.096-0.032 0.16-0.032 0.256 0 0 0 0 0 0 0 4.16 0.832 8.288 2.464 12.192 1.536 3.744 3.84 7.072 6.592 9.92 0.128 0.128 0.16 0.32 0.288 0.416l191.456 191.232c12.448 12.448 32.64 12.448 45.12 0 12.448-12.448 12.448-32.608 0-45.056l-136.992-136.832h656.864c140.768 0 255.264-114.368 255.264-254.976v-223.072c0-17.6-14.272-31.872-31.904-31.872z" />
<glyph unicode="&#xe827;" glyph-name="back-4-circle" data-tags="back-4-circle" d="M512-64c-282.304 0-512 229.664-512 512 0 282.304 229.696 512 512 512s512-229.696 512-512c0-282.336-229.696-512-512-512zM512 896c-247.040 0-448-200.96-448-448s200.96-448 448-448c247.040 0 448 200.96 448 448s-200.96 448-448 448zM640 416h-274.752l73.376-73.376c12.512-12.48 12.512-32.768 0-45.248-6.24-6.24-14.432-9.376-22.624-9.376s-16.384 3.136-22.624 9.376l-128 128c-2.944 2.944-5.28 6.464-6.912 10.4-3.232 7.808-3.232 16.64 0 24.448 1.632 3.936 4 7.488 6.976 10.464l127.936 127.936c12.512 12.512 32.736 12.512 45.248 0 12.512-12.48 12.512-32.736 0-45.248l-73.344-73.344h274.72c15.424 0 64 19.232 64 63.968v64c0 17.664 14.336 32 32 32s32-14.336 32-32v-64c0-85.216-82.048-128-128-128z" />
<glyph unicode="&#xe828;" glyph-name="back-4-square" data-tags="back-4-square" d="M992-64h-960c-17.664 0-32 14.336-32 32v960c0 17.664 14.336 32 32 32h960c17.664 0 32-14.336 32-32v-960c0-17.664-14.336-32-32-32zM960 896h-896v-896h896v896zM265.44 470.688l127.936 127.936c12.512 12.512 32.736 12.512 45.248 0 12.512-12.48 12.512-32.736 0-45.248l-73.344-73.344h274.72c15.424 0 64 19.232 64 63.968v64c0 17.664 14.336 32 32 32s32-14.336 32-32v-64c0-85.216-82.048-128-128-128h-274.752l73.376-73.376c12.512-12.48 12.512-32.768 0-45.248-6.24-6.24-14.432-9.376-22.624-9.376s-16.384 3.136-22.624 9.376l-128 128c-2.944 2.944-5.28 6.464-6.912 10.4-3.232 7.808-3.232 16.64 0 24.448 1.632 3.936 4 7.488 6.976 10.464z" />
<glyph unicode="&#xe829;" glyph-name="back-4" data-tags="back-4" d="M765.632 288h-656.864l136.96-137.376c12.48-12.48 12.48-32.768 0-45.248-6.208-6.272-14.368-9.376-22.56-9.376-8.16 0-16.32 3.104-22.56 9.376l-191.424 192c-2.944 2.944-5.28 6.464-6.88 10.4-1.632 3.904-2.464 8.064-2.464 12.224 0 0 0 0 0 0s0 0.032 0 0.032c0 4.16 0.832 8.288 2.432 12.192 1.632 3.904 3.968 7.456 6.912 10.4l191.424 191.968c12.48 12.544 32.672 12.544 45.12 0 12.48-12.448 12.48-32.736 0-45.216l-136.96-137.376h656.864c105.568 0 191.456 86.144 191.456 192v224c0 17.664 14.272 32 31.904 32 17.6 0 31.904-14.336 31.904-32v-224c0-141.152-114.528-256-255.264-256z" />
<glyph unicode="&#xe82a;" glyph-name="back-5" data-tags="back-5" d="M765.632 288h-656.864l136.992-137.344c12.448-12.512 12.448-32.8 0-45.28-6.24-6.272-14.4-9.376-22.56-9.376s-16.32 3.104-22.56 9.376l-191.456 192c-2.944 2.944-5.248 6.464-6.88 10.4-3.232 7.808-3.232 16.64 0 24.448 1.632 3.936 3.936 7.456 6.88 10.4l191.456 192c12.448 12.48 32.64 12.48 45.12 0 12.448-12.48 12.448-32.768 0-45.248l-136.992-137.376h656.864c105.568 0 191.456 86.144 191.456 192s-85.888 192-191.456 192h-733.888c-17.6 0-31.904 14.336-31.904 32s14.304 32 31.904 32h733.888c140.768 0 255.264-114.848 255.264-256 0-141.184-114.496-256-255.264-256z" />
<glyph unicode="&#xe82b;" glyph-name="back-6" data-tags="back-6" d="M765.76 98.944h-733.888c-17.632 0-31.936 14.272-31.936 31.84 0 17.6 14.304 31.872 31.936 31.872h733.888c105.568 0 191.456 85.792 191.456 191.232s-85.888 191.2-191.456 191.2h-656.864l136.96-136.8c12.48-12.448 12.48-32.608 0-45.056-6.208-6.24-14.368-9.344-22.56-9.344-8.16 0-16.32 3.104-22.56 9.344l-191.424 191.2c-2.944 2.944-5.28 6.464-6.912 10.368-1.568 3.808-2.368 7.84-2.4 11.904 0 0.096-0.064 0.16-0.064 0.256 0 0 0 0 0 0 0 4.16 0.864 8.288 2.464 12.192 1.632 3.904 3.968 7.424 6.912 10.368l191.424 191.232c12.48 12.448 32.672 12.448 45.12 0 12.48-12.48 12.48-32.64 0-45.088l-136.96-136.8h656.864c140.736 0 255.264-114.4 255.264-254.976s-114.528-254.944-255.264-254.944z" />
<glyph unicode="&#xe82c;" glyph-name="back-7" data-tags="back-7" d="M1013.024 32.352c-0.96-16.928-14.88-30.048-31.584-30.048-0.32 0-0.672 0-1.024 0-17.12 0.544-30.72 14.784-30.656 32.064 0 1.056-1.44 119.968-97.792 211.2-82.464 78.080-209.504 114.208-377.056 108.832v-192.48c0-12.416-7.168-23.712-18.336-28.96-4.256-1.984-8.8-2.976-13.312-2.976-7.36 0-14.624 2.56-20.48 7.584l-411.552 351.136c-7.104 6.080-11.2 15.008-11.2 24.384s4.096 18.304 11.2 24.352l411.552 351.168c9.408 8.032 22.592 9.824 33.792 4.608 11.168-5.248 18.336-16.544 18.336-28.96v-192.384c73.152-4.256 259.744-29.088 394.368-169.664 107.040-111.808 155.424-269.888 143.744-469.856zM824.128 457.44c-147.584 154.496-376.384 151.488-378.752 151.424-0.384-0.032-0.736 0.192-1.152 0.192-0.352-0.032-0.64-0.224-0.96-0.224-1.632 0-2.784 0.768-4.256 1.024-2.432 0.384-4.864 0.64-7.072 1.632-0.16 0.096-0.288 0.224-0.48 0.32-10.496 4.928-18.144 15.744-18.4 28.224-0.128 5.6 1.536 10.624 3.936 15.232v146.656l-336.288-288.832 336.288-287.168v142.464c-2.848 4.448-4.992 9.408-5.344 15.072-0.832 14.016 7.584 26.080 19.776 31.136 1.12 0.576 2.592 0.64 3.84 1.024 2.048 0.544 3.904 1.504 6.080 1.632 0.64 0.032 1.248 0.032 1.888 0.064 0 0 0 0 0.032 0 0 0 0 0 0 0 200.448 11.84 352.832-30.592 453.056-126.144 14.112-13.472 26.496-27.36 37.408-41.376-19.904 82.592-56.48 152.064-109.6 207.648z" />
<glyph unicode="&#xe82d;" glyph-name="backward-7" data-tags="backward-7" d="M1014.592 112.32c-0.96-16.864-14.912-29.984-31.776-29.984-0.064 0-0.128 0-0.192 0-16.928 0.064-30.816 13.408-31.616 30.336-0.16 3.008-5.376 78.72-76.32 141.728-67.136 59.648-170.176 87.456-305.344 83.776v-128.416c0-12.608-7.392-24.032-18.912-29.12-4.128-1.856-8.544-2.752-12.928-2.752-7.744 0-15.36 2.848-21.344 8.224l-315.008 284.768c-6.656 6.016-10.464 14.56-10.496 23.52-0.032 8.992 3.712 17.536 10.336 23.616l315.008 288.704c9.312 8.512 22.816 10.752 34.336 5.632 11.552-5.056 19.008-16.512 19.008-29.152v-130.24c64.96-8.032 219.2-39.328 329.28-160.384 86.208-94.848 125.248-222.784 115.968-380.256zM851.872 449.28c-121.216 133.728-313.6 142.72-315.552 142.784-17.568 0.704-31.264 15.488-30.624 33.056 0.256 6.432 2.848 12 6.304 16.896v78.944l-242.208-226.272 242.208-221.728v64c0 3.328 0.384 7.808 0.96 12.672-3.904 4.96-6.816 10.72-7.232 17.504-1.056 17.568 12.32 32.64 29.856 33.696 0.672 0.032 1.28 0.032 1.92 0.064 0 0 0 0 0 0s0.032 0 0.032 0c167.968 9.824 296.032-23.84 380.832-100.096 7.264-6.528 13.984-13.152 20.16-19.84-15.616 65.568-44.576 121.888-86.656 168.32zM78.752 494.688l289.056-261.28c13.024-11.84 14.048-31.968 2.272-45.024-6.304-6.944-14.944-10.496-23.648-10.496-7.616 0-15.232 2.72-21.344 8.224l-315.008 284.768c-6.656 6.016-10.464 14.56-10.496 23.52-0.032 8.992 3.712 17.536 10.336 23.616l315.040 288.704c12.96 11.904 33.088 10.944 44.96-1.984 11.872-12.992 11.008-33.12-1.952-45.024l-289.216-265.024z" />
<glyph unicode="&#xe82e;" glyph-name="double-arrows-1-left" data-tags="double-arrows-1-left" d="M461.088 448.832l485.376-455.232c12.832-12.032 13.472-32.224 1.44-45.088-6.272-6.688-14.752-10.080-23.264-10.080-7.808 0-15.648 2.88-21.824 8.64l-510.176 478.464c-6.4 6.048-10.048 14.464-10.048 23.296 0 8.8 3.648 17.248 10.048 23.264l510.176 478.496c12.864 12.032 33.056 11.424 45.088-1.44s11.392-33.056-1.44-45.088l-485.376-455.232zM142.208 448.832l485.376-455.232c12.864-12.032 13.504-32.224 1.472-45.088-6.304-6.688-14.784-10.080-23.264-10.080-7.84 0-15.68 2.88-21.824 8.64l-510.176 478.464c-6.432 6.048-10.080 14.464-10.080 23.296 0 8.8 3.648 17.248 10.080 23.264l510.176 478.496c12.832 12.032 33.024 11.424 45.088-1.44 12.032-12.864 11.392-33.056-1.472-45.088l-485.376-455.232z" />
<glyph unicode="&#xe82f;" glyph-name="double-arrows-1-right" data-tags="double-arrows-1-right" d="M946.816 425.536l-510.176-478.464c-6.144-5.76-13.984-8.64-21.824-8.64-8.48 0-16.96 3.392-23.232 10.112-12.064 12.832-11.424 33.024 1.44 45.056l485.376 455.232-485.376 455.232c-12.864 12.032-13.504 32.224-1.44 45.056 12 12.896 32.192 13.536 45.056 1.472l510.176-478.496c6.432-6.016 10.080-14.464 10.080-23.264 0-8.832-3.648-17.248-10.080-23.296zM638.048 448.832c0-8.832-3.648-17.248-10.080-23.296l-510.176-478.464c-6.144-5.76-14.016-8.64-21.824-8.64-8.48 0-16.992 3.392-23.264 10.112-12.032 12.832-11.392 33.024 1.44 45.056l485.376 455.232-485.376 455.232c-12.832 12.032-13.472 32.224-1.44 45.056 12.032 12.896 32.224 13.536 45.088 1.472l510.176-478.496c6.432-6.016 10.080-14.464 10.080-23.264z" />
<glyph unicode="&#xe830;" glyph-name="fork-arrows" data-tags="fork-arrows" horiz-adv-x="1022" d="M1021.304 927.493v-223.99c0-17.682-14.28-31.994-31.898-31.994s-28.689 16.013-28.689 33.695v148.289l-278.864-279.634c-89.66-89.981-139.079-209.549-139.175-336.691 0-0.128 0.032-0.225 0.032-0.353l-0.032-269.269c0-17.682-14.28-31.994-31.898-31.994s-31.898 14.312-31.898 31.994v255.791c0 0.032-0.032 0.096-0.032 0.128v13.35c0 0.128 0.032 0.225 0.032 0.353-0.096 127.142-49.515 246.71-139.175 336.691l-277.517 278.287v-146.941c0-17.682-12.387-33.695-30.004-33.695s-31.93 14.312-31.93 31.994v223.99c0 0 0 0 0 0 0 4.172 0.866 8.343 2.471 12.258 1.572 3.787 3.883 7.156 6.675 10.044 0.096 0.096 0.128 0.225 0.225 0.321 0.225 0.257 0.546 0.321 0.802 0.546 2.792 2.631 5.969 4.878 9.563 6.354 3.883 1.637 8.023 2.471 12.194 2.471 0 0 0 0 0 0h223.348c17.618 0 31.898-14.344 31.898-31.994 0-17.682-15.082-29.748-32.7-29.748h-147.776l277.87-278.64c57.281-57.474 99.48-125.794 125.954-200.083 26.474 74.289 68.673 142.609 125.954 200.083l277.87 278.64h-146.428c-17.618 0-34.048 12.066-34.048 29.748 0 17.65 14.312 31.994 31.93 31.994h223.348c0.16 0 0.257-0.064 0.417-0.096 4.011-0.032 7.99-0.802 11.745-2.375 7.83-3.241 14.056-9.467 17.265-17.297 1.412-3.369 1.925-6.964 2.118-10.526 0.032-0.61 0.353-1.091 0.353-1.701z" />
<glyph unicode="&#xe831;" glyph-name="forward-7" data-tags="forward-7" d="M1005.312 470.88l-315.040-284.768c-6.080-5.504-13.728-8.224-21.344-8.224-8.672 0-17.344 3.552-23.648 10.528-11.776 13.056-10.752 33.184 2.304 44.992l289.056 261.28-289.216 265.024c-12.96 11.872-13.856 32.032-1.984 45.024 11.904 12.928 32.032 13.856 44.992 1.984l315.040-288.704c6.624-6.048 10.368-14.624 10.336-23.616-0.032-8.96-3.84-17.504-10.496-23.52zM824.768 494.4c-0.032-8.96-3.84-17.504-10.496-23.52l-315.072-284.768c-5.952-5.376-13.6-8.224-21.344-8.224-4.352 0-8.768 0.896-12.896 2.752-11.52 5.088-18.944 16.512-18.944 29.12v128.384c-135.968 3.68-239.328-24.416-306.4-84.736-70.848-63.68-75.2-139.968-75.232-140.736-0.768-16.896-14.688-30.24-31.616-30.336-0.064 0-0.128 0-0.192 0-16.832 0-30.784 13.12-31.776 29.984-9.28 157.472 29.792 285.408 116 380.256 110.048 121.056 264.288 152.352 329.216 160.384v130.24c0 12.64 7.456 24.096 19.008 29.152 11.52 5.12 25.024 2.88 34.336-5.632l315.072-288.704c6.624-6.048 10.368-14.624 10.336-23.616zM504 720.96v-79.616c3.104-4.736 5.44-10.080 5.664-16.224 0.64-17.6-13.056-32.352-30.592-33.056-1.952-0.064-194.336-9.024-315.552-142.784-42.080-46.432-71.040-102.72-86.624-168.32 6.176 6.688 12.896 13.344 20.128 19.872 84.832 76.224 212.992 109.856 380.832 100.064 0 0 0 0 0 0s0.032 0 0.032 0c0.64-0.032 1.248-0.032 1.888-0.064 2.784-0.16 5.216-1.216 7.744-2.048 0.608-0.256 1.408-0.224 1.984-0.544 12.416-4.928 20.992-17.056 20.128-31.104-0.32-5.792-2.624-10.816-5.632-15.36v-78.816l241.568 221.728-241.568 226.272z" />
<glyph unicode="&#xe832;" glyph-name="next-1" data-tags="next-1" d="M1018.432 461.6c3.232-7.776 3.232-16.544 0-24.32-1.632-3.904-3.936-7.424-6.88-10.336l-223.36-222.784c-6.24-6.24-14.4-9.344-22.56-9.344s-16.32 3.104-22.56 9.344c-12.48 12.416-12.48 32.576 0 44.992l168.896 168.48h-880.224c-17.632 0-31.904 14.24-31.904 31.808v222.816c0 17.568 14.272 31.808 31.904 31.808 17.6 0 31.904-14.24 31.904-31.808v-190.976h848.288l-168.864 168.448c-12.48 12.416-12.48 32.608 0 44.992 12.448 12.448 32.64 12.448 45.12 0l223.328-222.72c2.944-2.944 5.28-6.464 6.912-10.4z" />
<glyph unicode="&#xe833;" glyph-name="next-2" data-tags="next-2" d="M1018.336 461.632c1.632-3.904 2.464-8.032 2.464-12.192 0 0 0 0 0 0 0-0.128-0.064-0.256-0.064-0.384-0.064-4-0.832-8-2.4-11.776-1.6-3.904-3.968-7.424-6.912-10.368l-223.328-222.752c-6.24-6.208-14.4-9.344-22.56-9.344s-16.32 3.136-22.56 9.344c-12.448 12.416-12.448 32.576 0 44.992l168.896 168.448h-848.32v-190.944c0-17.568-14.272-31.84-31.904-31.84s-31.904 14.272-31.904 31.84v222.784c0 17.6 14.272 31.84 31.904 31.84h880.224l-168.896 168.448c-12.448 12.416-12.448 32.608 0 44.992 12.48 12.448 32.672 12.448 45.12 0l223.36-222.752c0.032-0.032 0.032-0.064 0.032-0.064 2.912-2.912 5.248-6.4 6.848-10.272z" />
<glyph unicode="&#xe834;" glyph-name="next-3" data-tags="next-3" d="M1020.768 576.736c-0.032-4.064-0.832-8.096-2.432-11.904-1.6-3.904-3.936-7.424-6.88-10.368l-191.456-191.232c-6.208-6.208-14.4-9.344-22.56-9.344s-16.32 3.136-22.56 9.344c-12.448 12.448-12.448 32.64 0 45.088l136.992 136.8h-656.864c-105.568 0-191.456-85.792-191.456-191.232v-223.072c0-17.6-14.272-31.872-31.904-31.872-17.6 0-31.904 14.272-31.904 31.872v223.072c0 140.608 114.528 254.976 255.264 254.976h656.864l-136.992 136.832c-12.448 12.448-12.448 32.608 0 45.056 12.48 12.448 32.672 12.448 45.12 0l191.456-191.232c0.128-0.096 0.16-0.288 0.288-0.416 2.784-2.848 5.056-6.176 6.592-9.92 1.632-3.904 2.464-8.032 2.464-12.192 0 0 0 0 0 0 0-0.096-0.032-0.16-0.032-0.256z" />
<glyph unicode="&#xe835;" glyph-name="next-4-circle" data-tags="next-4-circle" d="M512-64c-282.304 0-512 229.664-512 512 0 282.304 229.696 512 512 512s512-229.696 512-512c0-282.336-229.696-512-512-512zM512 896c-247.040 0-448-200.96-448-448s200.96-448 448-448c247.040 0 448 200.96 448 448s-200.96 448-448 448zM758.624 425.376l-128-128c-6.24-6.24-14.432-9.376-22.624-9.376s-16.384 3.136-22.624 9.376c-12.512 12.48-12.512 32.768 0 45.248l73.376 73.376h-274.752c-15.424 0-64-19.264-64-64v-64c0-17.696-14.336-32-32-32s-32 14.304-32 32v64c0 85.216 82.080 128.032 128 128.032h274.72l-73.344 73.344c-12.512 12.512-12.512 32.768 0 45.248 12.512 12.512 32.736 12.512 45.248 0l127.936-127.936c2.976-2.976 5.344-6.528 6.976-10.464 3.232-7.808 3.232-16.64 0-24.448-1.632-3.936-3.968-7.456-6.912-10.4z" />
<glyph unicode="&#xe836;" glyph-name="next-4-square" data-tags="next-4-square" d="M992-64h-960c-17.664 0-32 14.336-32 32v960c0 17.664 14.336 32 32 32h960c17.664 0 32-14.336 32-32v-960c0-17.664-14.336-32-32-32zM960 896h-896v-896h896v896zM384 480.032h274.72l-73.344 73.344c-12.512 12.512-12.512 32.768 0 45.248 12.512 12.512 32.736 12.512 45.248 0l127.936-127.936c2.976-2.976 5.344-6.528 6.976-10.464 3.232-7.808 3.232-16.64 0-24.448-1.632-3.936-3.968-7.456-6.912-10.4l-128-128c-6.24-6.24-14.432-9.376-22.624-9.376s-16.384 3.136-22.624 9.376c-12.512 12.48-12.512 32.768 0 45.248l73.376 73.376h-274.752c-15.424 0-64-19.264-64-64v-64c0-17.696-14.336-32-32-32s-32 14.304-32 32v64c0 85.216 82.048 128.032 128 128.032z" />
<glyph unicode="&#xe837;" glyph-name="next-4" data-tags="next-4" d="M1020.736 320c0-4.16-0.864-8.32-2.464-12.224-1.632-3.936-3.968-7.456-6.912-10.4l-191.424-192c-6.24-6.272-14.4-9.376-22.56-9.376-8.192 0-16.352 3.104-22.56 9.376-12.48 12.48-12.48 32.768 0 45.248l136.96 137.376h-656.864c-140.736 0-255.264 114.848-255.264 256v224c0 17.664 14.304 32 31.904 32 17.632 0 31.904-14.336 31.904-32v-224c0-105.856 85.888-192 191.456-192h656.864l-136.96 137.376c-12.48 12.48-12.48 32.768 0 45.216 12.448 12.544 32.64 12.544 45.12 0l191.424-191.968c2.944-2.944 5.28-6.496 6.912-10.4 1.568-3.84 2.4-7.936 2.4-12.032 0-0.064 0.064-0.128 0.064-0.192 0 0 0 0 0 0z" />
<glyph unicode="&#xe838;" glyph-name="next-5" data-tags="next-5" d="M988.832 736h-733.92c-105.568 0-191.424-86.144-191.424-192s85.856-192 191.424-192h656.864l-136.96 137.376c-12.48 12.48-12.48 32.768 0 45.248 12.448 12.48 32.64 12.48 45.12 0l191.424-192c2.944-2.944 5.28-6.464 6.912-10.4 3.232-7.808 3.232-16.64 0-24.448-1.632-3.936-3.968-7.456-6.912-10.4l-191.424-192c-6.24-6.272-14.4-9.376-22.56-9.376-8.192 0-16.352 3.104-22.56 9.376-12.48 12.48-12.48 32.768 0 45.28l136.96 137.344h-656.864c-140.736 0-255.264 114.816-255.264 256 0 141.152 114.528 256 255.264 256h733.92c17.632 0 31.904-14.336 31.904-32s-14.272-32-31.904-32z" />
<glyph unicode="&#xe839;" glyph-name="next-6" data-tags="next-6" d="M1018.4 564.8c-1.632-3.904-3.968-7.424-6.912-10.368l-191.424-191.2c-6.24-6.24-14.4-9.344-22.56-9.344-8.192 0-16.352 3.104-22.56 9.344-12.48 12.448-12.48 32.608 0 45.056l136.96 136.8h-656.864c-105.568 0-191.424-85.76-191.424-191.2s85.856-191.232 191.424-191.232h733.888c17.632 0 31.936-14.272 31.936-31.872s-14.304-31.84-31.936-31.84h-733.888c-140.736 0-255.264 114.368-255.264 254.944s114.528 254.976 255.264 254.976h656.864l-136.96 136.8c-12.48 12.416-12.48 32.608 0 45.088 12.448 12.448 32.64 12.448 45.12 0l191.424-191.232c0 0 0 0 0 0 2.944-2.944 5.28-6.464 6.88-10.368 1.632-3.904 2.496-8.032 2.464-12.192 0 0 0.032 0 0.032 0 0-0.032-0.032-0.064-0.032-0.096-0.032-4.096-0.832-8.192-2.432-12.064z" />
<glyph unicode="&#xe83a;" glyph-name="next-7" data-tags="next-7" d="M1004.128 488.672l-411.584-351.2c-5.824-4.96-13.12-7.552-20.448-7.552-4.512 0-9.056 0.96-13.344 2.944-11.168 5.248-18.336 16.544-18.336 28.96v192.512c-167.616 5.44-294.592-30.752-377.024-108.864-96.384-91.2-97.824-210.112-97.824-211.296-0.064-17.28-13.696-31.424-30.784-31.904-0.288 0-0.608 0-0.896 0-16.704 0-30.592 13.088-31.584 30.016-11.68 200 36.704 358.048 143.744 469.856 134.656 140.64 321.248 165.472 394.368 169.696v192.352c0 12.448 7.168 23.776 18.336 28.992 11.2 5.248 24.384 3.456 33.792-4.576l411.584-351.2c7.104-6.080 11.2-15.008 11.2-24.384s-4.096-18.304-11.2-24.352zM600 801.92v-149.28c1.568-3.904 2.4-8.16 2.304-12.64-0.256-11.232-6.944-20.8-15.84-26.304-1.248-0.864-2.368-1.824-3.776-2.464-1.76-0.736-3.616-0.864-5.504-1.248-1.728-0.352-3.2-1.184-5.088-1.184-0.352 0-0.64 0.192-0.992 0.192-0.416 0.032-0.768-0.192-1.152-0.16-2.4-0.064-231.168 3.072-378.72-151.456-53.12-55.584-89.728-125.088-109.632-207.68 10.944 14.048 23.328 27.936 37.44 41.376 100.224 95.616 252.64 137.952 452.928 126.144 0.032 0 0.064 0.032 0.128 0.032 0.032 0 0.064-0.032 0.128-0.032 0.608-0.032 1.152 0 1.76-0.032 1.856-0.128 3.424-0.96 5.152-1.376 1.792-0.48 3.712-0.64 5.28-1.408 11.936-5.152 20.096-17.152 19.264-31.008-0.256-4.64-1.632-8.96-3.68-12.864v-144.608l334.624 287.104-334.624 288.896z" />
<glyph unicode="&#xe83b;" glyph-name="s-arrow-1" data-tags="s-arrow-1" d="M822.377 521.808c-6.226-6.226-14.409-9.37-22.624-9.37-8.183 0-16.366 3.145-22.624 9.37-12.483 12.483-12.483 32.764 0 45.247l139.111 139.111h-683.843c-2.792-0.802-5.552-1.733-8.6-1.733-88.216 0-160.002-71.786-160.002-160.002 0-88.248 71.786-160.002 160.002-160.002h575.956c123.515 0 223.99-100.442 223.99-223.99 0-123.483-100.475-223.99-223.99-223.99h-767.952c-17.682 0-31.994 14.344-31.994 31.994 0 17.682 14.312 31.994 31.994 31.994h767.952c88.216 0 160.002 71.786 160.002 160.002s-71.786 160.002-160.002 160.002h-575.956c-123.515 0-223.99 100.475-223.99 223.99s100.475 223.99 223.99 223.99h690.711l-137.378 137.346c-12.483 12.515-12.483 32.764 0 45.279 12.515 12.483 32.764 12.483 45.247 0l191.996-191.996c0.193-0.193 0.257-0.449 0.449-0.674 2.696-2.824 4.942-6.065 6.45-9.691 1.637-3.915 2.471-8.087 2.471-12.258 0 0 0 0 0 0 0-9.884-3.787-17.842-9.98-23.233l-191.386-191.386z" />
<glyph unicode="&#xe83c;" glyph-name="s-arrow-2" data-tags="s-arrow-2" horiz-adv-x="1021" d="M851.707 585.796c-6.258-6.226-14.409-9.37-22.559-9.37-8.183 0-16.334 3.145-22.559 9.37-12.483 12.483-12.483 32.764 0 45.247l106.893 107.214h-713.431c-2.92-0.899-5.84-1.829-9.049-1.829-70.374 0-127.623-57.409-127.623-128.008 0-70.566 57.249-127.976 127.623-127.976h638.147c105.545 0 191.418-86.13 191.418-191.996s-85.874-191.996-191.418-191.996h-720.651l105.063-105.352c12.451-12.483 12.451-32.764 0-45.247-6.226-6.258-14.409-9.402-22.559-9.402s-16.334 3.145-22.559 9.402l-159.553 159.97c-0.225 0.225-0.289 0.546-0.513 0.802-2.631 2.792-4.878 6.001-6.354 9.595-3.241 7.83-3.241 16.655 0 24.485 1.508 3.626 3.755 6.835 6.418 9.659 0.193 0.225 0.257 0.513 0.449 0.738l159.553 159.938c12.451 12.547 32.636 12.547 45.119 0 12.451-12.483 12.451-32.732 0-45.215l-105.063-105.384h720.651c70.374 0 127.623 57.442 127.623 128.008s-57.249 127.976-127.623 127.976h-638.147c-105.577 0-191.45 86.13-191.45 191.996s85.874 191.996 191.45 191.996h720.651l-105.063 105.352c-12.483 12.515-12.483 32.764 0 45.279 12.451 12.483 32.636 12.483 45.119 0l159.521-160.002c0 0 0 0 0 0 2.952-2.952 5.263-6.482 6.899-10.397 1.605-3.915 2.439-8.055 2.439-12.226 0 0 0 0 0 0 0-9.852-3.755-17.778-9.884-23.137l-158.975-159.489z" />
<glyph unicode="&#xe83d;" glyph-name="s-arrow-3" data-tags="s-arrow-3" horiz-adv-x="1021" d="M1011.003 744.899c-6.226-6.258-14.376-9.402-22.559-9.402-8.151 0-16.334 3.145-22.559 9.402l-105.063 105.352v-722.705c0-105.866-85.874-191.996-191.45-191.996-105.545 0-191.45 86.13-191.45 191.996v639.944c0 70.599-57.249 128.008-127.623 128.008s-127.623-57.409-127.623-128.008c0-1.893-0.738-3.498-1.059-5.295v-718.469l106.122 106.443c12.483 12.515 32.668 12.515 45.119 0 12.483-12.483 12.483-32.764 0-45.247l-159.521-160.002c-2.118-2.118-4.653-3.337-7.124-4.749-1.155-0.674-2.054-1.669-3.337-2.214-3.851-1.605-7.99-2.407-12.098-2.407-4.14 0-8.279 0.834-12.194 2.471-3.915 1.605-7.445 3.979-10.397 6.931l-159.489 159.97c-12.483 12.483-12.483 32.764 0 45.247 12.451 12.515 32.636 12.515 45.087 0l105.096-105.384v722.705c0 105.866 85.874 191.996 191.418 191.996 105.577 0 191.45-86.13 191.45-191.996v-639.944c0-70.599 57.249-128.008 127.623-128.008s127.623 57.409 127.623 128.008c0 3.915 0.963 7.605 2.246 11.103v713.848l-107.31-107.599c-12.451-12.515-32.636-12.515-45.119 0-12.451 12.483-12.451 32.732 0 45.215l159.553 160.002c0.16 0.193 0.417 0.257 0.61 0.449 5.263 5.584 12.772 8.921 21.95 8.921 4.14 0 8.279-0.834 12.194-2.471 3.562-1.476 6.675-3.69 9.435-6.29 0.289-0.257 0.642-0.321 0.931-0.61l159.521-160.002c12.483-12.483 12.483-32.732 0-45.215z" />
<glyph unicode="&#xe83e;" glyph-name="answer" data-tags="answer" horiz-adv-x="1039" d="M829.129-64c-111.176 0-316.072 128.472-509.854 319.692-112.425 110.888-205.441 227.669-262.006 328.852-63.516 113.611-74.117 196.248-30.685 239.072l146.73 128.825c6.502 5.669 15.054 8.552 23.734 8.008 8.68-0.577 16.752-4.548 22.421-11.050l195.768-224.114c9.161-10.506 10.442-25.624 3.171-37.507l-85.2-138.594 288.494-284.651 140.58 84.079c11.979 7.175 27.258 5.958 37.956-3.075l227.221-192.116c6.566-5.541 10.634-13.517 11.243-22.037 0.609-8.552-2.274-16.976-8.008-23.382l-128.312-143.975c-0.448-0.48-1.826-1.89-2.306-2.37-17.264-17.040-41.127-25.656-70.947-25.656zM73.189 779.062c-12.748-15.086-15.471-62.715 40.902-163.577 53.714-96.058 142.886-207.779 251.083-314.535 200.22-197.561 384.969-300.922 463.955-300.922 8.232 0 19.25 1.185 25.047 6.886l106.051 118.992-184.397 155.922-142.245-85.040c-12.78-7.687-29.211-5.669-39.749 4.74l-324.528 320.14c-10.57 10.41-12.556 26.617-4.805 39.237l86.161 140.195-158.837 181.899-118.639-103.937z" />
<glyph unicode="&#xe83f;" glyph-name="call-back" data-tags="call-back" horiz-adv-x="1022" d="M862.505 448.192c-17.649 0-31.966 14.317-31.966 31.998s14.317 32.030 31.966 32.030c52.882 0 95.93 43.048 95.93 95.994 0 52.978-43.048 96.058-95.93 96.058h-210.565l73.317-73.413c12.492-12.492 12.492-32.735 0-45.226-6.246-6.278-14.446-9.385-22.613-9.385s-16.367 3.107-22.613 9.385l-127.896 128.024c-12.492 12.492-12.492 32.735 0 45.258l127.896 128.056c12.492 12.492 32.735 12.492 45.226 0 12.492-12.524 12.492-32.799 0-45.29l-73.349-73.413h210.597c88.147 0 159.862-71.779 159.862-160.054 0-88.211-71.715-160.022-159.862-160.022zM327.315 549.087l284.266-284.587 138.498 84.015c11.787 7.175 26.873 5.958 37.379-3.075l223.826-192.052c6.47-5.573 10.474-13.517 11.082-22.037 0.577-8.552-2.242-16.976-7.879-23.414l-126.423-143.911c-0.448-0.512-1.794-1.89-2.274-2.37-16.976-17.008-40.486-25.656-69.857-25.656-109.479 0-311.3 128.472-502.295 319.66-212.519 212.84-379.812 476.254-288.398 567.892l144.584 128.697c6.406 5.701 14.67 8.744 23.382 8.008 8.552-0.545 16.495-4.516 22.101-11.018l192.821-224.082c9.032-10.506 10.314-25.624 3.107-37.475l-83.919-138.594zM188.048 882.84l-118.063-104.962c-37.859-38.052 55.38-243.14 288.879-476.959 197.305-197.529 379.3-300.89 457.069-300.89 8.104 0 18.962 1.185 24.663 6.886l104.482 118.96-181.674 155.89-140.131-85.008c-12.556-7.687-28.763-5.669-39.173 4.74l-319.724 320.076c-10.41 10.442-12.364 26.617-4.74 39.269l84.912 140.131-156.499 181.866z" />
<glyph unicode="&#xe840;" glyph-name="call-block" data-tags="call-block" horiz-adv-x="1037" d="M798.912 550.752c-10.624-9.088-25.984-10.304-37.984-3.136l-140.32 84.032-288.192-284.512 85.056-138.528c7.296-11.808 6.048-26.912-3.072-37.408l-194.496-224c-5.632-6.528-13.696-10.496-22.336-11.104-0.768-0.064-1.536-0.064-2.272-0.064-7.872 0-15.488 2.816-21.408 7.968l-145.76 126.432c-0.512 0.448-1.92 1.792-2.4 2.24-43.328 42.784-31.776 126.336 33.376 241.6 57.856 102.368 151.712 219.936 264.32 331.040 190.656 188.224 392.832 314.688 503.104 314.688 30.24 0 54.464-8.768 71.968-26.048l130.4-144.672c5.76-6.4 8.672-14.848 8.096-23.392s-4.608-16.512-11.168-22.112l-226.912-193.024zM852.224 889.184c-5.696 5.536-17.152 6.816-25.696 6.816-78.272 0-260.48-101.664-457.28-295.936-108.48-107.040-198.528-219.616-253.536-316.96-52.032-92.064-59.36-150.176-44.128-165.152l120.448-104.544 157.856 181.856-86.080 140.16c-7.744 12.608-5.76 28.8 4.8 39.232l324.16 319.968c10.528 10.464 26.944 12.416 39.712 4.736l141.952-84.96 184.128 156.672-106.336 118.112zM842.56 319.936c52 0 100.832-19.936 137.536-56.16 36.704-36.256 56.96-84.512 56.96-135.84-0.032-51.264-20.224-99.456-56.96-135.68 0 0 0 0 0-0.032 0 0 0 0 0 0s0 0-0.032 0c-36.704-36.256-85.536-56.224-137.504-56.224s-100.8 19.968-137.504 56.224c-75.808 74.88-75.808 196.672 0 271.552 36.704 36.224 85.536 56.16 137.504 56.16zM934.272 218.496c-24.48 24.16-57.056 37.472-91.712 37.472-23.488 0-45.792-6.56-65.472-18.048l176.864-174.592c11.616 19.424 18.272 41.44 18.272 64.64 0 34.24-13.504 66.368-37.952 90.528zM750.912 37.472c41.056-40.544 107.552-46.624 156.896-19.136l-176.576 174.304c-29.184-49.024-22.912-113.12 19.68-155.168z" />
<glyph unicode="&#xe841;" glyph-name="call-end" data-tags="call-end" horiz-adv-x="1021" d="M192.288-64c-7.744 0-15.232 2.816-21.088 7.968l-143.584 126.496c-0.512 0.448-1.888 1.792-2.368 2.272-91.328 91.552 78.4 357.376 293.28 572.672 187.808 188.16 386.976 314.592 495.584 314.592 29.792 0 53.632-8.8 70.88-26.048l128.48-144.704c5.696-6.4 8.576-14.816 8-23.392-0.576-8.544-4.544-16.48-11.008-22.112l-223.552-192.992c-10.464-9.056-25.6-10.304-37.408-3.104l-138.24 84-283.904-284.448 83.84-138.592c7.136-11.84 5.92-26.944-3.072-37.408l-191.584-224.032c-5.568-6.496-13.504-10.496-22.016-11.104-0.736-0.032-1.472-0.064-2.24-0.064zM814.112 896c-77.088 0-256.576-101.632-450.432-295.904-232.8-233.184-330.688-444.576-293.28-482.080l118.688-104.608 155.52 181.824-84.832 140.224c-7.616 12.64-5.664 28.8 4.736 39.232l319.296 319.936c10.4 10.432 26.56 12.384 39.136 4.736l139.84-84.96 181.408 156.64-103.712 117.024c-7.872 6.784-18.4 7.936-26.368 7.936z" />
<glyph unicode="&#xe842;" glyph-name="call-hold" data-tags="call-hold" horiz-adv-x="1022" d="M926.469 544.218v96.058h95.93v-96.058h-95.93zM766.607 640.276h95.93v-96.058h-95.93v96.058zM787.49 345.472l223.794-192.084c6.502-5.573 10.474-13.517 11.082-22.037s-2.21-16.944-7.879-23.382l-126.39-143.943c-0.448-0.48-1.794-1.89-2.274-2.37-16.976-17.008-40.486-25.624-69.857-25.624-109.447 0-311.332 128.44-502.263 319.596-212.551 212.904-379.876 476.319-288.398 567.956l144.584 128.697c6.406 5.701 14.766 8.744 23.35 8.008 8.552-0.577 16.527-4.548 22.101-11.050l192.821-224.050c9.032-10.506 10.282-25.656 3.107-37.507l-83.887-138.594 284.234-284.587 138.498 84.047c11.755 7.143 26.841 5.958 37.379-3.075zM623.304 196.756c-12.588-7.687-28.731-5.669-39.173 4.74l-319.724 320.108c-10.41 10.442-12.364 26.617-4.708 39.237l84.88 140.131-156.499 181.866-118.063-104.962c-37.892-38.020 55.38-243.14 288.879-476.959 197.305-197.529 379.268-300.89 457.069-300.89 8.104 0 18.962 1.185 24.663 6.886l104.45 118.96-181.642 155.89-140.131-85.008zM606.745 640.276h95.93v-96.058h-95.93v96.058z" />
<glyph unicode="&#xe843;" glyph-name="call-in" data-tags="call-in" horiz-adv-x="1022" d="M1012.319 905.061l-297.027-297.38h146.588c17.65 0 31.962-14.28 31.962-31.994 0-17.65-11.745-30.935-29.395-30.935h-220.909c-1.797-0.321-3.562-1.059-5.391-1.059-8.151 0-16.334 3.145-22.592 9.402-8.279 8.279-10.526 19.896-7.83 30.454v217.925c0 17.682 12.772 30.229 30.422 30.229s31.962-14.312 31.962-32.026v-146.717l297.027 297.348c12.483 12.515 32.7 12.515 45.183 0 12.483-12.483 12.483-32.732 0-45.247zM326.871 548.571l284.127-284.48 138.437 83.98c11.777 7.188 26.827 5.969 37.353-3.049l223.733-191.996c6.482-5.552 10.461-13.51 11.071-22.046 0.61-8.504-2.214-16.944-7.862-23.362l-126.339-143.861c-0.449-0.513-1.797-1.893-2.278-2.375-17.008-17.008-40.498-25.64-69.86-25.64-109.396 0-311.179 128.393-502.052 319.491-212.47 212.79-379.724 476.123-288.299 567.709l144.535 128.65c6.386 5.712 14.794 8.761 23.362 7.99 8.536-0.546 16.494-4.525 22.078-11.007l192.766-223.99c9.017-10.494 10.269-25.608 3.113-37.481l-83.884-138.534zM187.632 882.181l-118.028-104.903c-37.866-37.995 55.356-243.052 288.78-476.797 197.227-197.451 379.146-300.75 456.869-300.75 8.119 0 18.965 1.187 24.645 6.867l104.454 118.926-181.599 155.83-140.074-84.975c-12.547-7.67-28.721-5.68-39.15 4.717l-319.587 320.004c-10.397 10.397-12.355 26.603-4.749 39.214l84.847 140.106-156.408 181.759z" />
<glyph unicode="&#xe844;" glyph-name="call-logs" data-tags="call-logs" horiz-adv-x="1022" d="M1010.009 550.881l-93.671-93.8c-6.258-6.226-14.441-9.37-22.592-9.37-8.183 0-16.366 3.145-22.592 9.37-12.515 12.515-12.515 32.764 0 45.247l42.359 42.423h-241.608c-17.65 0-33.855 13.285-33.855 30.935 0 17.714 14.312 31.994 31.962 31.994h242.474l-41.332 41.396c-12.515 12.483-12.515 32.732 0 45.247 12.483 12.483 32.7 12.483 45.183 0l95.854-95.982c2.952-2.952 5.295-6.482 6.931-10.397 1.605-3.915 2.471-8.055 2.471-12.226 0 0 0-0.032 0-0.032 0-10.654-4.461-19.286-11.585-24.806zM928.628 801.474h-247.159l43.097-43.161c12.483-12.483 12.483-32.732 0-45.215-6.226-6.29-14.409-9.402-22.592-9.402s-16.366 3.113-22.592 9.402l-95.886 95.982c-6.258 6.226-9.37 14.441-9.37 22.624 0 0 0 0 0 0 0 0.032 0 0.032 0 0.064 0.032 4.14 0.866 8.247 2.471 12.162s3.979 7.445 6.931 10.397l95.854 95.982c12.483 12.515 32.7 12.515 45.183 0 12.483-12.483 12.483-32.732 0-45.247l-41.332-41.364h242.474c17.65 0 31.962-14.344 31.962-31.994 0-17.714-11.392-30.229-29.042-30.229zM326.775 548.571l284.159-284.48 138.437 83.98c11.777 7.156 26.86 5.969 37.353-3.081l223.733-191.964c6.482-5.584 10.461-13.542 11.071-22.046 0.61-8.536-2.214-16.944-7.862-23.362l-126.371-143.861c-0.449-0.546-1.797-1.893-2.278-2.375-16.976-17.008-40.466-25.64-69.828-25.64-109.428 0-311.211 128.393-502.084 319.491-212.47 212.79-379.724 476.091-288.299 567.677l144.535 128.682c6.386 5.712 14.729 8.729 23.362 7.99 8.536-0.546 16.494-4.525 22.078-11.007l192.766-223.99c9.017-10.494 10.301-25.608 3.113-37.481l-83.884-138.534zM187.535 882.181l-118.028-104.903c-37.834-38.027 55.356-243.052 288.78-476.797 197.227-197.451 379.146-300.75 456.901-300.75 8.119 0 18.933 1.187 24.645 6.867l104.422 118.926-181.567 155.83-140.074-85.007c-12.579-7.637-28.753-5.648-39.15 4.749l-319.619 320.004c-10.397 10.397-12.355 26.603-4.717 39.214l84.847 140.106-156.44 181.759z" />
<glyph unicode="&#xe845;" glyph-name="call-off" data-tags="call-off" horiz-adv-x="1037" d="M1026.952 905.062l-972.014-959.948c-6.322-6.258-14.601-9.402-22.88-9.402-8.311 0-16.591 3.145-22.912 9.402-12.676 12.483-12.676 32.732 0 45.247l280.469 277.003c-26.186 29.876-80.771 92.709-90.109 103.844-141.711 169.95-250.336 375.488-173.608 451.67 0.481 0.481 1.925 1.861 2.439 2.31l144.182 126.404c6.514 5.712 15.403 8.632 23.683 7.99 8.664-0.546 16.751-4.525 22.399-11.007l195.365-223.99c9.146-10.526 10.429-25.608 3.145-37.481l-84.975-138.534 121.109-119.632 527.917 521.37c12.644 12.515 33.149 12.515 45.793 0 12.676-12.515 12.676-32.764 0-45.247zM268.339 521.070c-10.526 10.429-12.515 26.603-4.814 39.214l85.97 140.106-158.526 181.791-119.6-104.839c-24.517-24.421 13.446-167.928 178.133-365.444 8.472-10.108 59.239-68.545 86.066-99.159l71.882 70.984-139.111 137.346zM442.204 215.281c217.379-188.081 382.484-235.831 409.985-208.619l105.866 118.798-184.070 155.83-141.935-84.943c-12.74-7.605-29.138-5.712-39.696 4.749l-64.309 63.475c-12.644 12.515-12.644 32.796 0 45.279 12.676 12.483 33.149 12.483 45.825 0l46.306-45.761 140.267 83.916c12.002 7.124 27.277 5.937 37.899-3.081l226.782-191.996c6.579-5.552 10.654-13.51 11.232-22.014 0.642-8.536-2.246-16.976-7.958-23.426l-128.008-143.668c-0.546-0.61-2.15-2.182-2.76-2.792-17.682-17.457-42.167-25.287-71.433-25.287-108.626-0.032-283.742 107.759-426.704 231.403-13.446 11.649-14.794 31.866-3.016 45.183 11.809 13.285 32.251 14.601 45.729 2.952z" />
<glyph unicode="&#xe846;" glyph-name="call-out" data-tags="call-out" horiz-adv-x="1022" d="M1021.657 703.695c0-17.65-14.312-31.994-31.962-31.994s-28.977 15.82-28.977 33.502v148.225l-299.98-300.333c-6.226-6.258-14.409-9.402-22.592-9.402s-16.366 3.145-22.592 9.402c-12.483 12.483-12.483 32.732 0 45.215l299.049 299.434h-146.428c-17.65 0-34.144 12.291-34.144 29.94s14.312 31.994 31.962 31.994h223.637c4.204 0 8.376-0.834 12.323-2.471 3.787-1.605 7.22-3.915 10.108-6.739 0.064-0.064 0.16-0.096 0.225-0.16 0 0 0 0 0 0 2.952-2.952 5.295-6.482 6.899-10.397 1.637-3.915 2.471-8.055 2.471-12.226 0 0 0 0 0 0v-223.99zM326.839 548.571l284.159-284.48 138.437 83.98c11.745 7.156 26.827 5.937 37.353-3.081l223.701-191.964c6.514-5.584 10.494-13.542 11.103-22.046 0.578-8.536-2.246-16.944-7.894-23.362l-126.339-143.861c-0.449-0.513-1.797-1.893-2.278-2.375-16.976-17.008-40.466-25.64-69.86-25.64-109.396 0-311.147 128.393-502.052 319.491-212.47 212.79-379.724 476.091-288.267 567.677l144.502 128.682c6.418 5.712 14.665 8.729 23.362 7.99 8.536-0.546 16.494-4.525 22.078-11.007l192.766-223.99c9.017-10.494 10.301-25.608 3.113-37.481l-83.884-138.534zM187.6 882.181l-117.996-104.903c-37.866-38.027 55.356-243.052 288.748-476.797 197.227-197.451 379.146-300.75 456.869-300.75 8.119 0 18.965 1.187 24.677 6.867l104.422 118.926-181.567 155.83-140.074-85.007c-12.611-7.605-28.753-5.648-39.15 4.749l-319.619 320.004c-10.397 10.397-12.355 26.603-4.717 39.214l84.847 140.106-156.44 181.759z" />
<glyph unicode="&#xe847;" glyph-name="call" data-tags="call" horiz-adv-x="1022" d="M990.465 512.22c-17.649 0-31.966 14.317-31.966 31.998 0 194.166-157.78 352.138-351.69 352.138-17.681 0-31.998 14.349-31.998 31.998 0 17.681 14.317 31.998 31.998 31.998 229.175 0 415.622-186.671 415.622-416.134 0-17.681-14.317-31.998-31.966-31.998zM862.569 512.22c0-17.681-14.317-32.030-31.966-32.030s-31.966 14.349-31.966 32.030c0 123.572-100.414 224.082-223.826 224.082-17.649 0-31.966 14.317-31.966 31.998s14.317 31.998 31.966 31.998c158.677 0 287.758-129.209 287.758-288.078zM327.379 549.087l284.266-284.587 138.498 84.015c11.723 7.175 26.841 5.958 37.347-3.043l223.826-192.084c6.47-5.573 10.474-13.517 11.082-22.037 0.577-8.552-2.242-16.976-7.879-23.414l-126.39-143.911c-0.448-0.512-1.794-1.89-2.306-2.37-16.976-17.008-40.486-25.656-69.857-25.656-109.447 0-311.3 128.472-502.263 319.628-212.551 212.872-379.844 476.319-288.398 567.956l144.584 128.697c6.406 5.701 14.702 8.712 23.382 8.008 8.52-0.577 16.495-4.548 22.069-11.018l192.853-224.082c9.032-10.506 10.282-25.656 3.107-37.507l-83.919-138.594zM188.112 882.84l-118.063-104.93c-37.892-38.052 55.38-243.172 288.879-477.023 197.305-197.497 379.268-300.858 457.036-300.858 8.104 0 18.994 1.185 24.663 6.886l104.482 118.96-181.642 155.89-140.131-85.008c-12.588-7.687-28.763-5.669-39.173 4.74l-319.724 320.076c-10.41 10.442-12.364 26.617-4.74 39.269l84.88 140.131-156.467 181.866z" />
<glyph unicode="&#xe848;" glyph-name="chat-1" data-tags="chat-1" d="M864.896 142.144c5.312-39.488 18.176-68.576 28.736-86.816 12.064-20.608 23.52-31.104 23.648-31.2 9.472-8.608 13.056-22.176 8.832-34.304-4.192-12.096-15.104-20.64-27.904-21.536-0.832-0.064-4.352-0.288-10.080-0.288-33.216 0-140.192 7.36-218.304 96.224h-61.824c-99.072 0-185.056 36.896-239.744 67.808-15.392 8.736-20.8 28.256-12.128 43.648 8.704 15.392 28.288 20.8 43.616 12.096 48.032-27.168 123.136-59.552 208.256-59.552h76.8c9.856 0 19.136-4.512 25.184-12.288 36.096-46.016 82.4-66.976 119.552-76.384-17.408 35.296-27.616 74.656-30.4 117.344-0.8 12.128 5.344 23.648 15.872 29.76 92.128 53.504 144.992 131.232 144.992 213.28 0 55.136-21.344 113.184-57.024 155.328-11.456 13.504-9.76 33.696 3.712 45.088 13.504 11.456 33.664 9.792 45.12-3.68 45.888-54.208 72.192-125.888 72.192-196.736 0-99.776-57.696-192.8-159.104-257.792zM416 256h-61.76c-78.336-88.992-186.304-96.192-218.656-96.192-6.24 0-9.696 0.256-9.696 0.256-12.832 0.96-23.904 9.504-28.032 21.664-4.128 12.192-0.64 25.664 8.96 34.208 1.664 1.504 42.080 39.552 52.416 118.112-101.472 64.896-159.232 157.984-159.232 257.92 0 185.28 186.592 336.032 416 336.032 229.376 0 416-150.752 416-336.032 0-185.248-186.624-335.968-416-335.968zM416 863.968c-194.080 0-352-121.984-352-272 0-82.176 52.864-159.936 145.024-213.344 10.496-6.080 16.672-17.568 15.904-29.696-3.072-49.312-16.128-88.416-30.528-117.472 37.408 9.472 83.712 30.464 119.68 76.288 6.048 7.744 15.328 12.256 25.184 12.256h76.736c194.080 0 352 122.016 352 271.968 0 150.016-157.92 272-352 272z" />
<glyph unicode="&#xe849;" glyph-name="chat-2" data-tags="chat-2" d="M959.904 448h-64.064v-128c0-12.928-7.808-24.608-19.776-29.568-3.968-1.632-8.128-2.432-12.256-2.432-8.352 0-16.512 3.232-22.656 9.376l-150.752 150.624h-242.976c-35.328 0-64.064 28.704-64.064 64v384c0 35.296 28.736 64 64.064 64h512.48c35.296 0 64.032-28.704 64.032-64v-384c0-35.296-28.736-64-64.032-64zM959.904 896h-512.48v-384h256.224c0.704 0 1.28-0.352 1.984-0.384 3.488-0.224 6.944-0.704 10.24-2.080 3.936-1.632 7.488-3.968 10.464-6.976l105.44-105.312v82.752c0 17.664 14.336 32 32.032 32h96.096v384zM160.16 160c17.696 0 32.032-14.336 32.032-32v-82.752l105.44 105.344c2.944 2.944 6.496 5.312 10.4 6.912 3.968 1.664 8.16 2.496 12.352 2.496h256.16v192c0 17.664 14.336 32 32.032 32 17.664 0 32.032-14.336 32.032-32v-192c0-35.296-28.736-64-64.064-64h-242.976l-150.784-150.624c-6.112-6.144-14.304-9.376-22.624-9.376-4.128 0-8.288 0.8-12.256 2.432-11.968 4.96-19.776 16.608-19.776 29.568v128h-64.064c-35.328 0-64.064 28.704-64.064 64v384c0 35.296 28.736 64 64.064 64h223.2c17.696 0 32.032-14.336 32.032-32s-14.336-32-32.032-32h-223.2v-384h96.096z" />
<glyph unicode="&#xe84a;" glyph-name="chat-3" data-tags="chat-3" d="M1001.632-46.528c-3.168-0.992-6.432-1.472-9.632-1.472-10.24 0-20.096 4.928-26.208 13.664l-102.464 146.336h-476.928c-54.272 0-98.4 44.128-98.4 98.368v93.632c0 17.664 14.336 32 32 32s32-14.336 32-32v-93.632c0-18.944 15.424-34.368 34.4-34.368h493.6c0.96 0 1.76-0.448 2.72-0.544 2.176-0.192 4.192-0.64 6.304-1.28 1.952-0.576 3.808-1.216 5.568-2.144 1.792-0.896 3.36-2.048 4.96-3.328 1.728-1.376 3.264-2.784 4.704-4.48 0.576-0.704 1.408-1.088 1.952-1.888l53.792-76.8v472.032c0 18.976-15.424 34.432-34.4 34.432h-93.6c-17.664 0-32 14.336-32 32s14.336 32 32 32h93.6c54.272 0 98.4-44.16 98.4-98.432v-573.568c0-13.952-9.056-26.336-22.368-30.528zM637.6 400h-476.928l-102.464-146.336c-6.112-8.736-15.968-13.664-26.208-13.664-3.2 0-6.464 0.48-9.632 1.472-13.312 4.192-22.368 16.544-22.368 30.528v576c0 53.824 43.232 96 98.4 96h539.2c55.168 0 98.4-42.176 98.4-96v-349.632c0-54.24-44.128-98.368-98.4-98.368zM672 848c0 18.24-14.784 32-34.4 32h-539.2c-19.616 0-34.4-13.76-34.4-32v-474.496l53.792 76.832c0.512 0.768 1.344 1.152 1.952 1.856 1.44 1.728 3.008 3.168 4.768 4.544 1.568 1.248 3.136 2.368 4.864 3.296 1.792 0.928 3.616 1.536 5.6 2.144 2.112 0.64 4.16 1.088 6.4 1.28 0.896 0.064 1.696 0.544 2.624 0.544h493.6c18.976 0 34.4 15.424 34.4 34.368v349.632z" />
<glyph unicode="&#xe84b;" glyph-name="comment-1-like" data-tags="comment-1-like" d="M512 128c-22.272 0-56.832-0.224-77.76-0.352-77.152-118.336-233.76-127.296-240.704-127.616-0.512-0.032-1.024-0.032-1.536-0.032-11.744 0-22.592 6.432-28.16 16.832-5.856 10.848-4.96 24.064 2.304 34.016 0.512 0.736 50.080 70.016 57.056 153.12-144.16 77.44-223.2 186.24-223.2 308.032 0 211.744 229.696 384 512 384s512-172.256 512-384c0-211.744-229.696-384-512-384zM512 832c-247.040 0-448-143.552-448-320 0-136.832 129.28-221.856 206.304-260.384 10.848-5.408 17.696-16.48 17.696-28.608 0-56.928-17.184-108.928-34.56-146.944 45.152 13.408 103.296 41.28 134.432 98.688 5.536 10.208 16.224 16.64 27.872 16.736 0 0 62.272 0.512 96.256 0.512 247.040 0 448 143.552 448 320s-200.96 320-448 320zM691.712 369.472c-4.384-27.936-29.44-49.472-58.112-49.472h-115.168c-36.544 0-66.944 19.648-82.4 32h-52.032c0-17.664-14.336-32-32-32s-32 14.336-32 32v256c0 17.664 14.336 32 32 32s32-14.336 32-32h43.232c12.224 27.488 33.408 74.816 38.144 84.256 10.496 21.088 35.616 43.744 65.952 43.744 44.448 0 76.672-26.912 76.672-64v-64h74.496c15.488 0 30.112-6.464 40.16-17.696 9.984-11.168 14.688-26.272 12.992-41.44-0.16-1.344-0.384-2.688-0.736-4l-43.2-175.392zM576 544c-17.664 0-32 14.336-32 32v93.664c-2.368 1.088-6.912 2.336-12.672 2.336-1.76-0.384-6.624-4.096-8.672-8.256-4.352-8.704-29.536-64.992-45.408-100.736-5.152-11.552-16.608-19.008-29.248-19.008h-64v-128h64c8.48 0 16.64-3.36 22.624-9.376 6.368-6.176 27.584-22.624 47.808-22.624h110.944l39.424 160h-92.8z" />
<glyph unicode="&#xe84c;" glyph-name="comment-1" data-tags="comment-1" d="M512 128c-22.272 0-56.832-0.224-77.76-0.352-77.152-118.336-233.76-127.296-240.704-127.616-0.512-0.032-1.024-0.032-1.536-0.032-11.744 0-22.592 6.432-28.16 16.832-5.856 10.848-4.96 24.064 2.304 34.016 0.544 0.736 50.080 70.016 57.056 153.12-144.16 77.44-223.2 186.24-223.2 308.032 0 211.744 229.696 384 512 384s512-172.256 512-384c0-211.744-229.696-384-512-384zM512 832c-247.040 0-448-143.552-448-320 0-136.832 129.28-221.856 206.304-260.384 10.848-5.408 17.696-16.48 17.696-28.608 0-56.928-17.184-108.928-34.56-146.944 45.184 13.408 103.296 41.28 134.432 98.688 5.536 10.208 16.224 16.64 27.872 16.736 0 0 62.272 0.512 96.256 0.512 247.040 0 448 143.552 448 320s-200.96 320-448 320zM736 480h-448c-17.664 0-32 14.304-32 32 0 17.664 14.336 32 32 32h448c17.664 0 32-14.336 32-32 0-17.696-14.336-32-32-32zM736 608h-448c-17.664 0-32 14.336-32 32 0 17.696 14.336 32 32 32h448c17.664 0 32-14.304 32-32 0-17.664-14.336-32-32-32zM288 416h256c17.664 0 32-14.336 32-32s-14.336-32-32-32h-256c-17.664 0-32 14.336-32 32s14.336 32 32 32z" />
<glyph unicode="&#xe84d;" glyph-name="comment-2-hashtag" data-tags="comment-2-hashtag" d="M960 192h-561.024l-150.4-180.48c-6.176-7.456-15.264-11.52-24.576-11.52-3.648 0-7.328 0.608-10.88 1.92-12.672 4.576-21.12 16.608-21.12 30.080v160h-128c-35.296 0-64 28.704-64 64v576c0 35.296 28.704 64 64 64h896c35.296 0 64-28.704 64-64v-576c0-35.296-28.704-64-64-64zM960 832h-896v-576h160c17.664 0 32-14.336 32-32v-103.616l103.424 124.096c0.32 0.384 0.768 0.512 1.088 0.896 1.568 1.696 3.424 2.912 5.312 4.224 1.568 1.12 2.976 2.4 4.704 3.2 1.696 0.8 3.584 1.088 5.44 1.568 2.208 0.576 4.352 1.248 6.656 1.344 0.48 0.032 0.896 0.288 1.376 0.288h576v576zM352 448c-17.664 0-32 14.336-32 32s14.336 32 32 32h56.96l12.8 64h-37.76c-17.664 0-32 14.336-32 32s14.336 32 32 32h50.56l14.080 70.304c3.424 17.312 20.192 28.576 37.632 25.056 17.344-3.456 28.576-20.32 25.088-37.632l-11.52-57.728h94.72l14.048 70.304c3.456 17.312 20.256 28.576 37.664 25.056 17.344-3.456 28.576-20.32 25.088-37.632l-11.52-57.728h44.16c17.664 0 32-14.336 32-32s-14.336-32-32-32h-56.96l-12.8-64h37.76c17.664 0 32-14.336 32-32s-14.336-32-32-32h-50.56l-14.080-70.304c-3.008-15.168-16.384-25.696-31.328-25.696-2.080 0-4.192 0.192-6.304 0.64-17.344 3.456-28.576 20.32-25.12 37.632l11.552 57.728h-94.72l-14.080-70.304c-3.008-15.168-16.384-25.696-31.328-25.696-2.080 0-4.192 0.192-6.304 0.64-17.344 3.456-28.576 20.32-25.088 37.632l11.52 57.728h-44.16zM568.96 512l12.8 64h-94.72l-12.8-64h94.72z" />
<glyph unicode="&#xe84e;" glyph-name="comment-2-quote" data-tags="comment-2-quote" d="M960 192h-561.024l-150.4-180.48c-6.176-7.456-15.264-11.52-24.576-11.52-3.648 0-7.328 0.608-10.88 1.92-12.672 4.576-21.12 16.608-21.12 30.080v160h-128c-35.296 0-64 28.704-64 64v576c0 35.296 28.704 64 64 64h896c35.296 0 64-28.704 64-64v-576c0-35.296-28.704-64-64-64zM960 832h-896v-576h160c17.664 0 32-14.336 32-32v-103.616l103.424 124.096c0.32 0.384 0.768 0.512 1.088 0.896 1.568 1.696 3.456 2.912 5.344 4.256 1.536 1.12 2.944 2.368 4.64 3.136 1.728 0.832 3.616 1.12 5.504 1.6 2.208 0.576 4.32 1.248 6.624 1.344 0.48 0.032 0.896 0.288 1.376 0.288h576v576zM320 416c0 17.568 14.112 31.808 31.616 32 9.44 0.288 50.368 5.28 61.472 64h-93.088c-17.664 0-32 14.304-32 32v128c0 17.664 14.336 32 32 32h128c17.664 0 32-14.336 32-32v-128c0-126.56-83.744-160-128-160-17.664 0-32 14.336-32 32zM576 704h128c17.664 0 32-14.336 32-32v-128c0-126.56-83.744-160-128-160-17.664 0-32 14.336-32 32 0 17.568 14.112 31.808 31.616 32 9.44 0.288 50.368 5.28 61.472 64h-93.088c-17.664 0-32 14.304-32 32v128c0 17.664 14.336 32 32 32z" />
<glyph unicode="&#xe84f;" glyph-name="comment-2-smile" data-tags="comment-2-smile" d="M960 192h-530.784l-182.592-182.624c-6.112-6.112-14.304-9.376-22.624-9.376-4.128 0-8.288 0.8-12.256 2.432-11.936 4.96-19.744 16.608-19.744 29.568v160h-128c-35.296 0-64 28.704-64 64v576c0 35.296 28.704 64 64 64h896c35.296 0 64-28.704 64-64v-576c0-35.296-28.704-64-64-64zM960 832h-896v-576h160c17.664 0 32-14.336 32-32v-114.752l137.376 137.376c0.288 0.32 0.704 0.384 1.024 0.672 2.752 2.56 5.824 4.768 9.344 6.24 3.936 1.6 8.128 2.464 12.32 2.464h543.936v576zM293.376 494.24c-9.792 14.72-5.824 34.592 8.864 44.384 14.72 9.824 34.56 5.824 44.384-8.864 2.176-3.2 57.504-81.76 181.376-81.76s179.2 78.56 181.472 81.92c9.984 14.496 29.792 18.304 44.384 8.512 14.592-9.856 18.528-29.536 8.768-44.192-3.008-4.48-75.328-110.24-234.624-110.24s-231.616 105.76-234.624 110.24zM656 608c-26.496 0-48 21.504-48 48s21.504 48 48 48c26.496 0 48-21.504 48-48s-21.504-48-48-48zM400 608c-26.496 0-48 21.504-48 48s21.504 48 48 48c26.496 0 48-21.504 48-48s-21.504-48-48-48z" />
<glyph unicode="&#xe850;" glyph-name="comment-2-write-2" data-tags="comment-2-write-2" d="M960 192h-561.024l-150.4-180.48c-6.176-7.456-15.264-11.52-24.576-11.52-3.648 0-7.328 0.608-10.88 1.92-12.672 4.576-21.12 16.608-21.12 30.080v160h-128c-35.296 0-64 28.704-64 64v576c0 35.296 28.704 64 64 64h896c35.296 0 64-28.704 64-64v-576c0-35.296-28.704-64-64-64zM960 832h-896v-576h160c17.664 0 32-14.336 32-32v-103.616l103.424 124.096c0.32 0.384 0.768 0.512 1.088 0.896 1.536 1.696 3.424 2.912 5.28 4.224 1.568 1.12 3.008 2.4 4.736 3.2 1.696 0.8 3.584 1.088 5.408 1.568 2.24 0.576 4.384 1.248 6.688 1.344 0.48 0.032 0.896 0.288 1.376 0.288h576v576zM256 320.576c-8.32 0-16.512 3.264-22.624 9.344-8.864 8.896-11.744 22.144-7.328 33.888l53.92 143.552c0.064 0.128 0.16 0.224 0.224 0.32 0.736 1.888 2.144 3.456 3.232 5.184 1.216 1.92 2.144 4 3.68 5.568 0.096 0.064 0.096 0.192 0.192 0.288l218.688 218.784c0.48 0.48 1.12 0.64 1.632 1.088 0.384 0.416 0.512 0.96 0.928 1.376 36.032 36.128 98.88 36.128 134.912 0 18.016-17.984 27.936-41.984 27.936-67.488-0.032-25.472-9.984-49.408-28-67.392-0.448-0.448-1.056-0.576-1.504-0.992-0.416-0.48-0.576-1.088-1.024-1.536l-218.688-218.752c-0.096-0.096-0.288-0.128-0.384-0.256-1.056-1.024-2.496-1.568-3.68-2.464-2.304-1.664-4.544-3.456-7.136-4.448-0.064 0-0.096-0.064-0.16-0.096l-143.552-53.952c-3.68-1.344-7.488-2.016-11.264-2.016zM381.92 434.048l213.696 213.76c0.448 0.448 1.056 0.608 1.536 1.024 0.448 0.48 0.608 1.12 1.056 1.6 5.888 5.856 9.184 13.728 9.184 22.080 0 8.416-3.296 16.32-9.216 22.24-11.904 11.936-32.48 11.904-44.32 0.032-0.48-0.48-1.12-0.64-1.6-1.088-0.416-0.448-0.544-1.024-0.992-1.44l-213.856-213.984-26.656-70.976 71.168 26.752zM512 384.544h256c17.664 0 32-14.304 32-31.968 0-17.696-14.336-32-32-32h-256c-17.664 0-32 14.304-32 32 0 17.664 14.336 31.968 32 31.968z" />
<glyph unicode="&#xe851;" glyph-name="comment-2" data-tags="comment-2" d="M960 192h-561.024l-150.4-180.48c-6.176-7.456-15.264-11.52-24.576-11.52-3.648 0-7.328 0.608-10.88 1.92-12.672 4.576-21.12 16.608-21.12 30.080v160h-128c-35.296 0-64 28.704-64 64v576c0 35.296 28.704 64 64 64h896c35.296 0 64-28.704 64-64v-576c0-35.296-28.704-64-64-64zM960 832h-896v-576h160c17.664 0 32-14.336 32-32v-103.616l103.424 124.096c0.32 0.384 0.768 0.512 1.088 0.864 1.568 1.728 3.456 2.944 5.344 4.288 1.536 1.12 2.944 2.368 4.64 3.136 1.728 0.832 3.616 1.12 5.504 1.6 2.208 0.576 4.32 1.248 6.624 1.344 0.48 0.032 0.896 0.288 1.376 0.288h576v576zM192 416c0 17.664 14.336 32 32 32h384c17.664 0 32-14.336 32-32s-14.336-32-32-32h-384c-17.664 0-32 14.336-32 32zM192 544c0 17.664 14.336 32 32 32h576c17.664 0 32-14.336 32-32 0-17.696-14.336-32-32-32h-576c-17.664 0-32 14.304-32 32zM800 640h-576c-17.664 0-32 14.336-32 32s14.336 32 32 32h576c17.664 0 32-14.336 32-32s-14.336-32-32-32z" />
<glyph unicode="&#xe852;" glyph-name="comment-3-write-2" data-tags="comment-3-write-2" d="M897.152 192h-690.144l-150.432-180.512c-6.176-7.392-15.264-11.488-24.576-11.488-3.648 0-7.328 0.64-10.88 1.92-12.672 4.576-21.12 16.608-21.12 30.080v737.152c0 69.92 56.928 126.848 126.88 126.848h770.272c69.952 0 126.848-56.928 126.848-126.848v-450.272c0-69.984-56.896-126.88-126.848-126.88zM960 769.152c0 34.624-28.192 62.848-62.848 62.848h-770.272c-34.688 0-62.88-28.224-62.88-62.848v-648.768l103.424 124.096c0.32 0.384 0.768 0.544 1.12 0.896 1.504 1.696 3.36 2.88 5.216 4.192 1.6 1.152 3.040 2.432 4.768 3.232 1.696 0.8 3.52 1.056 5.344 1.536 2.272 0.608 4.448 1.28 6.784 1.376 0.448 0.032 0.864 0.288 1.344 0.288h705.152c34.656 0 62.848 28.192 62.848 62.88v450.272zM768 320h-256c-17.664 0-32 14.336-32 32s14.336 32 32 32h256c17.664 0 32-14.336 32-32s-14.336-32-32-32zM641.888 603.52c-0.416-0.48-0.576-1.088-1.024-1.536l-218.688-218.72c-0.096-0.128-0.288-0.16-0.384-0.288-1.088-1.056-2.592-1.632-3.808-2.528-2.272-1.632-4.448-3.36-6.944-4.352-0.096-0.032-0.16-0.096-0.224-0.128l-143.552-53.92c-3.68-1.344-7.488-2.048-11.264-2.048-8.32 0-16.512 3.264-22.624 9.376-8.864 8.864-11.744 22.112-7.328 33.888l53.952 143.552c0.032 0.128 0.16 0.224 0.192 0.352 0.64 1.632 1.92 3.008 2.848 4.544 1.312 2.144 2.4 4.448 4.096 6.208 0.064 0.064 0.096 0.16 0.16 0.224l218.688 218.784c0.48 0.48 1.12 0.64 1.632 1.088 0.384 0.416 0.512 0.96 0.928 1.376 36.032 36.16 98.88 36.16 134.912 0 18.016-17.984 27.936-41.952 27.936-67.456-0.032-25.504-9.952-49.44-28-67.424-0.448-0.448-1.056-0.576-1.504-0.992zM598.176 694.176c-11.904 11.968-32.48 11.904-44.32 0.064-0.48-0.48-1.12-0.64-1.6-1.088-0.416-0.448-0.544-1.024-0.992-1.472l-213.856-213.984-26.656-70.944 71.168 26.752 213.696 213.728c0.448 0.48 1.088 0.608 1.536 1.024 0.448 0.512 0.608 1.12 1.056 1.6 5.92 5.888 9.184 13.76 9.184 22.112 0 8.416-3.264 16.288-9.216 22.208z" />
<glyph unicode="&#xe853;" glyph-name="comment-3" data-tags="comment-3" d="M897.152 192h-690.144l-150.432-180.512c-6.176-7.392-15.264-11.488-24.576-11.488-3.648 0-7.328 0.64-10.88 1.92-12.672 4.576-21.12 16.608-21.12 30.080v737.152c0 69.92 56.928 126.848 126.88 126.848h770.272c69.952 0 126.848-56.928 126.848-126.848v-450.272c0-69.984-56.896-126.88-126.848-126.88zM960 769.152c0 34.624-28.192 62.848-62.848 62.848h-770.272c-34.688 0-62.88-28.224-62.88-62.848v-648.768l103.424 124.096c0.32 0.384 0.8 0.544 1.12 0.928 1.504 1.632 3.328 2.816 5.152 4.128 1.6 1.152 3.104 2.464 4.864 3.264 1.664 0.768 3.456 1.056 5.28 1.536 2.272 0.608 4.448 1.28 6.784 1.376 0.48 0.032 0.896 0.288 1.376 0.288h705.152c34.656 0 62.848 28.192 62.848 62.88v450.272zM800 512h-576c-17.664 0-32 14.336-32 32s14.336 32 32 32h576c17.664 0 32-14.336 32-32s-14.336-32-32-32zM800 640h-576c-17.664 0-32 14.336-32 32s14.336 32 32 32h576c17.664 0 32-14.336 32-32s-14.336-32-32-32zM224 448h384c17.664 0 32-14.336 32-32s-14.336-32-32-32h-384c-17.664 0-32 14.336-32 32s14.336 32 32 32z" />
<glyph unicode="&#xe854;" glyph-name="comments-1" data-tags="comments-1" d="M864.896 142.144c5.312-39.488 18.176-68.576 28.736-86.816 12.064-20.608 23.52-31.104 23.648-31.2 9.472-8.608 13.056-22.176 8.832-34.304-4.16-12.096-15.104-20.64-27.904-21.536-0.832-0.064-4.352-0.288-10.080-0.288-33.216 0-140.192 7.36-218.304 96.224h-61.824c-99.072 0-185.056 36.896-239.744 67.808-15.392 8.736-20.8 28.256-12.128 43.648 8.736 15.36 28.288 20.8 43.616 12.096 48.032-27.168 123.136-59.552 208.256-59.552h76.8c9.824 0 19.136-4.512 25.216-12.256 36.064-46.048 82.368-67.008 119.52-76.416-17.408 35.328-27.616 74.656-30.4 117.344-0.8 12.128 5.344 23.648 15.872 29.76 92.128 53.504 144.992 131.232 144.992 213.28 0 55.136-21.312 113.184-57.024 155.328-11.456 13.504-9.76 33.696 3.712 45.12 13.504 11.424 33.664 9.728 45.12-3.712 45.888-54.208 72.192-125.888 72.192-196.736 0-99.776-57.696-192.8-159.104-257.792zM416 256h-61.76c-78.336-88.992-186.304-96.192-218.656-96.192-6.24 0-9.696 0.256-9.696 0.256-12.832 0.96-23.936 9.504-28.032 21.664-4.128 12.192-0.64 25.664 8.96 34.208 1.664 1.504 42.080 39.552 52.416 118.112-101.472 64.896-159.232 157.984-159.232 257.92 0 185.28 186.592 336.032 416 336.032s416-150.752 416-336.032c0-185.248-186.592-335.968-416-335.968zM416 863.968c-194.080 0-352-121.984-352-272 0-82.176 52.864-159.936 145.024-213.344 10.496-6.080 16.672-17.568 15.904-29.696-3.072-49.312-16.128-88.416-30.528-117.472 37.408 9.472 83.712 30.464 119.648 76.288 6.080 7.744 15.36 12.256 25.216 12.256h76.736c194.080 0 352 122.016 352 271.968 0 150.016-157.92 272-352 272zM571.904 608.032h-320c-17.664 0-32 14.336-32 32 0 17.696 14.336 32 32 32h320c17.664 0 32-14.304 32-32 0-17.664-14.336-32-32-32zM251.904 544.032h224c17.664 0 32-14.336 32-32s-14.336-32-32-32h-224c-17.664 0-32 14.336-32 32s14.336 32 32 32z" />
<glyph unicode="&#xe855;" glyph-name="comments-2" data-tags="comments-2" d="M960 128h-128v-128c0-12.96-7.776-24.608-19.744-29.568-3.968-1.632-8.128-2.432-12.256-2.432-8.32 0-16.512 3.264-22.624 9.376l-150.656 150.624h-178.72c-35.264 0-64 28.736-64 64v32c0 17.664 14.304 32 32 32s32-14.336 32-32v-32h191.936c4.224 0 8.384-0.864 12.32-2.496 3.392-1.408 6.336-3.552 9.024-5.984 0.416-0.384 0.96-0.48 1.344-0.896l105.376-105.376v82.752c0 17.664 14.304 32 32 32h160v384h-96c-17.696 0-32 14.336-32 32s14.304 32 32 32h96c35.296 0 64-28.704 64-64v-384c0-35.264-28.704-64-64-64zM704 352h-306.752l-150.624-150.624c-6.112-6.112-14.304-9.376-22.624-9.376-4.128 0-8.288 0.8-12.256 2.432-11.968 4.96-19.744 16.608-19.744 29.568v128h-128c-35.264 0-64 28.704-64 64v448c0 35.296 28.736 64.032 64 64.032h640c35.296 0 64-28.736 64-64.032v-448c0-35.296-28.704-64-64-64zM704 864h-640v-448h160c17.696 0 32-14.336 32-32v-82.752l105.376 105.376c0.416 0.416 0.96 0.544 1.376 0.928 2.656 2.4 5.6 4.544 8.992 5.952 3.936 1.632 8.096 2.496 12.32 2.496h319.936v448zM128 576c0 17.664 14.304 32 32 32h288c17.696 0 32-14.336 32-32s-14.304-32-32-32h-288c-17.696 0-32 14.336-32 32zM128 704c0 17.664 14.304 32 32 32h448c17.696 0 32-14.336 32-32s-14.304-32-32-32h-448c-17.696 0-32 14.336-32 32z" />
<glyph unicode="&#xe856;" glyph-name="comments-3" data-tags="comments-3" d="M1001.632-46.944c-3.168-1.024-6.432-1.504-9.632-1.504-10.24 0-20.096 4.928-26.208 13.632l-102.464 146.016h-476.928c-54.272 0-98.4 44.032-98.4 98.144v93.44c0 17.6 14.336 31.904 32 31.904s32-14.304 32-31.904v-93.44c0-18.912 15.424-34.304 34.4-34.304h493.6c0.96 0 1.76-0.448 2.688-0.544 2.208-0.16 4.256-0.64 6.368-1.28 1.952-0.576 3.776-1.184 5.536-2.112 1.792-0.928 3.36-2.080 4.96-3.36 1.728-1.344 3.264-2.752 4.672-4.416 0.608-0.736 1.44-1.12 1.984-1.888l53.792-76.672v470.976c0 18.944-15.424 34.368-34.4 34.368h-93.6c-17.664 0-32 14.304-32 31.936s14.336 31.904 32 31.904h93.6c54.272 0 98.4-44.032 98.4-98.208v-572.256c0-13.952-9.056-26.272-22.368-30.432zM637.6 398.528h-476.928l-102.464-146.016c-6.112-8.672-15.968-13.632-26.208-13.632-3.2 0-6.464 0.512-9.632 1.504-13.312 4.16-22.368 16.512-22.368 30.464v574.688c0 54.144 44.128 98.144 98.4 98.144h539.2c54.272 0 98.4-44 98.4-98.144v-348.832c0-54.144-44.128-98.176-98.4-98.176zM672 845.536c0 18.912-15.424 34.304-34.4 34.304h-539.2c-18.976 0-34.4-15.392-34.4-34.304v-473.408l53.792 76.672c0.544 0.768 1.376 1.152 1.984 1.888 1.408 1.664 2.944 3.072 4.672 4.416 1.632 1.28 3.2 2.432 4.992 3.36 1.728 0.896 3.552 1.504 5.472 2.080 2.176 0.672 4.256 1.12 6.496 1.312 0.896 0.096 1.664 0.544 2.592 0.544h493.6c18.976 0 34.4 15.392 34.4 34.304v348.832zM544 687.040h-352c-17.664 0-32 13.152-32 30.784s14.336 31.936 32 31.936h352c17.664 0 32-14.304 32-31.936s-14.336-30.784-32-30.784zM192 653.952h224c17.664 0 32-14.272 32-31.904s-14.336-31.936-32-31.936h-224c-17.664 0-32 14.304-32 31.936s14.336 31.904 32 31.904z" />
<glyph unicode="&#xe857;" glyph-name="email-2-at" data-tags="email-2-at" d="M909.374-64h-801.264c-50.983 0-92.439 41.767-92.439 93.091v465.455c0 0.372 0.155 0.714 0.217 1.055 0.062 2.265 0.745 4.406 1.303 6.609 0.186 1.055 0.248 2.141 0.652 3.165 0.093 0.248 0.279 0.465 0.403 0.714 0.745 1.893 1.862 3.6 3.010 5.337 0.652 1.179 1.086 2.451 1.986 3.506 0.248 0.279 0.59 0.403 0.838 0.652 0.279 0.279 0.621 0.434 0.9 0.683 0.528 0.528 0.745 1.241 1.334 1.738l123.376 107.644c12.847 11.233 32.365 9.806 43.473-3.134 11.14-12.971 9.744-32.551-3.103-43.784l-96.597-84.247 248.894-218.515 122.539 109.32c24.793 21.38 62.96 21.38 87.319 0.341l122.911-109.661 248.894 218.515-96.659 84.34c-12.847 11.202-14.243 30.844-3.103 43.784 11.109 12.94 30.627 14.336 43.473 3.103l123.439-107.706c0.59-0.496 0.807-1.21 1.334-1.707 0.279-0.279 0.621-0.434 0.9-0.714 0.248-0.248 0.59-0.372 0.838-0.652 0.931-1.055 1.334-2.327 1.986-3.506 1.148-1.769 2.234-3.413 3.010-5.337 0.124-0.248 0.31-0.465 0.403-0.714 0.403-1.055 0.465-2.141 0.652-3.227 0.559-2.172 1.241-4.282 1.303-6.516 0.062-0.372 0.217-0.714 0.217-1.086v-465.455c0-51.324-41.456-93.091-92.439-93.091zM74.659 428.637v-391.478l221.153 197.322-221.153 194.157zM511.721 338.835c-0.993 0.838-4.965 0.838-6.33-0.341l-381.611-340.433h769.924l-381.983 340.775zM943.507 429.258l-221.867-194.777 221.867-197.942v392.72zM617.441 550.090c-25.445 10.178-41.332 30.72-45.584 55.824-18.618-11.357-40.215-18.277-63.519-18.277-67.956 0-123.252 55.699-123.252 124.121 0 68.453 55.296 124.121 123.252 124.121 23.614 0 45.49-7.044 64.264-18.68 4.748 10.985 15.546 18.68 28.207 18.68 17.005 0 30.813-13.902 30.813-31.030v-186.182c0-2.607 0-7.478 8.564-10.892 10.333-4.127 24.669-2.048 30.658 4.344 23.986 25.538 23.242 58.306 22.621 87.226l-0.217 12.412c0 102.648-82.944 186.182-184.91 186.182s-184.879-83.534-184.879-186.182c0-102.679 82.913-186.182 184.879-186.182 17.036 0 30.844-13.902 30.844-31.030s-13.808-31.030-30.844-31.030c-135.913 0-246.536 111.368-246.536 248.242s110.623 248.242 246.536 248.242c135.944 0 246.567-111.368 246.567-248.242l0.155-10.985c0.745-32.613 1.955-87.226-39.408-131.289-23.552-25.135-63.922-33.109-98.211-19.394zM508.338 773.818c-33.978 0-61.626-27.834-61.626-62.061s27.648-62.061 61.626-62.061c34.009 0 61.657 27.834 61.657 62.061s-27.648 62.061-61.657 62.061z" />
<glyph unicode="&#xe858;" glyph-name="email-2-letter" data-tags="email-2-letter" horiz-adv-x="1019" d="M923.524-63.583h-827.856c-52.675 0-95.539 43.057-95.539 95.956v479.748c0 0.417 0.224 0.737 0.224 1.122 0.032 1.186 0.417 2.308 0.705 3.43 0.353 2.533 0.769 4.937 1.731 7.342 0.128 0.417 0.16 0.898 0.353 1.314 0.609 1.379 1.635 2.565 2.533 3.783 0.834 1.347 1.25 2.821 2.276 4.040 0.513 0.609 1.25 0.834 1.795 1.379 0.256 0.256 0.385 0.609 0.673 0.866s0.385 0.641 0.673 0.898l148.246 129.074v134.62c0 17.633 14.235 31.964 31.836 31.964h159.563l137.987 120.129c11.99 10.387 29.72 10.387 41.71 0l138.019-120.129h159.531c17.601 0 31.836-14.331 31.836-31.964v-134.652l148.246-129.042c0.289-0.256 0.385-0.641 0.673-0.898s0.417-0.609 0.673-0.866c0.545-0.545 1.282-0.769 1.795-1.379 1.026-1.218 1.443-2.693 2.276-4.040 0.898-1.218 1.924-2.405 2.533-3.783 0.192-0.417 0.224-0.898 0.353-1.314 0.962-2.405 1.379-4.841 1.763-7.342 0.256-1.122 0.641-2.244 0.673-3.43 0-0.385 0.224-0.705 0.224-1.122v-479.748c0-52.899-42.832-95.956-95.507-95.956zM907.333 0.409l-394.66 351.219c-1.026 0.866-5.162 0.898-6.54-0.353l-394.275-350.866h795.476zM62.197 41.67l227.402 202.395-227.402 199.157v-401.553zM80.503 512.056l78.836-69.025v137.634l-78.836-68.609zM509.595 885.588l-61.62-53.637h123.207l-61.587 53.637zM663.356 769.563c-2.308-0.545-4.553-1.475-6.925-1.475-2.789 0-5.578 0.705-8.304 1.475h-425.63l0.513-382.317 114.647-100.412 126.605 112.691c25.552 21.993 64.986 22.057 90.249 0.321l126.958-112.98 118.109 103.394v379.303h-136.223zM859.82 580.633v-137.602l78.836 69.025-78.836 68.577zM959.88 445.788l-230.32-201.722 230.32-204.992v406.715z" />
<glyph unicode="&#xe859;" glyph-name="email-2-open" data-tags="email-2-open" horiz-adv-x="1019" d="M923.588-63.583h-827.856c-52.675 0-95.539 43.057-95.539 95.956v479.748c0 0.417 0.224 0.737 0.224 1.122 0.032 1.154 0.417 2.244 0.673 3.366 0.353 2.565 0.802 5.001 1.795 7.438 0.128 0.417 0.16 0.898 0.353 1.314 0.609 1.347 1.571 2.501 2.469 3.719 0.866 1.314 1.25 2.853 2.34 4.072 0.513 0.609 1.25 0.866 1.795 1.411 0.256 0.256 0.385 0.609 0.673 0.834 0.256 0.289 0.385 0.641 0.673 0.898l477.599 415.82c11.99 10.387 29.752 10.387 41.71 0l477.599-415.82c0.289-0.256 0.417-0.609 0.705-0.898 0.256-0.224 0.385-0.577 0.641-0.834 0.545-0.545 1.282-0.802 1.827-1.411 1.058-1.218 1.475-2.757 2.308-4.104 0.898-1.186 1.892-2.34 2.501-3.687 0.192-0.417 0.224-0.866 0.353-1.314 0.962-2.437 1.411-4.905 1.763-7.47 0.256-1.122 0.641-2.18 0.673-3.334 0.032-0.385 0.224-0.705 0.224-1.122v-479.748c0-52.899-42.832-95.956-95.507-95.956zM959.816 39.202v406.458l-230.192-201.594 230.192-204.864zM907.397 0.409l-394.66 351.219c-1.058 0.898-5.13 0.898-6.54-0.289l-394.275-350.93h795.476zM62.132 41.574l227.531 202.492-227.531 199.286v-401.777zM509.66 885.621l-429.093-373.564 257.154-225.222 126.605 112.691c25.616 22.057 65.082 22.057 90.281 0.321l126.926-112.98 257.186 225.19-429.060 373.564z" />
<glyph unicode="&#xe85a;" glyph-name="email-2-search" data-tags="email-2-search" horiz-adv-x="1020" d="M1010.471-54.19c-6.22-6.22-14.363-9.362-22.506-9.362-8.175 0-16.319 3.142-22.538 9.362l-80.92 81.272c-25.199-16.767-55.304-26.642-87.684-26.642-87.813 0-159.275 71.718-159.275 159.916 0 88.165 71.462 159.916 159.275 159.916s159.275-71.751 159.275-159.916c0-32.541-9.842-62.774-26.546-88.069l80.92-81.24c12.439-12.471 12.439-32.733 0-45.237zM796.822 256.313c-52.707 0-95.571-43.057-95.571-95.956 0-52.931 42.864-95.956 95.571-95.956s95.571 43.025 95.571 95.956c0 52.899-42.864 95.956-95.571 95.956zM860.525 384.232c-17.601 0-31.868 14.331-31.868 31.996v77.393l-191.495-210.891c-0.032-0.064-0.128-0.064-0.192-0.128s-0.064-0.16-0.128-0.224c-3.046-3.238-6.604-5.707-10.452-7.374-0.898-0.385-1.859-0.321-2.789-0.641-3.11-1.026-6.22-1.924-9.49-1.956-0.16 0-0.321-0.128-0.481-0.128-3.11 0-6.123 0.802-9.137 1.699-0.673 0.192-1.379 0.128-2.020 0.385-3.687 1.379-7.214 3.462-10.291 6.284-0.064 0.064-0.096 0.16-0.16 0.224s-0.16 0.064-0.224 0.128l-143.020 135.165c-0.353 0.289-4.873 0.321-6.412-0.962l-329.61-286.842h429.221c17.569 0 31.836-14.331 31.836-31.996 0-17.633-14.267-31.964-31.836-31.964h-445.988c-52.707 0-95.571 43.025-95.571 95.956v415.788c0 0.256 0.064 0.513 0.128 0.737 0.128 5.899 2.276 11.445 5.578 16.511 0.224 0.289 0.385 0.577 0.577 0.866s0.449 0.545 0.673 0.866c1.186 1.539 1.924 3.334 3.43 4.681 0.16 0.16 0.353 0.192 0.513 0.321 0.096 0.16 0.224 0.321 0.385 0.481l414.12 351.828c11.894 10.099 29.271 10.099 41.165 0l414.12-351.828c0.16-0.128 0.256-0.321 0.353-0.481 0.16-0.128 0.385-0.16 0.545-0.321 1.507-1.379 2.276-3.174 3.462-4.745 0.192-0.289 0.417-0.513 0.641-0.802 0.16-0.256 0.321-0.545 0.513-0.802 3.334-5.098 5.482-10.676 5.611-16.575 0.064-0.224 0.16-0.481 0.16-0.737v-159.916c0-17.665-14.267-31.996-31.868-31.996zM61.107 168.051l166.809 145.2-166.809 183.704v-328.905zM446.405 886.101l-368.307-312.907 197.971-218.041 125.002 108.78c25.712 21.544 65.178 21.352 90.249-0.192l120.578-113.91 202.812 223.363-368.307 312.907z" />
<glyph unicode="&#xe85b;" glyph-name="email-at" data-tags="email-at" horiz-adv-x="1018" d="M922.080-64h-826.304c-52.576 0-95.328 43.072-95.328 96v480.032c0 0.384 0.192 0.704 0.192 1.088 0.096 2.368 0.8 4.576 1.376 6.88 0.48 1.76 0.672 3.616 1.44 5.248 0.768 1.728 2.048 3.136 3.168 4.736 1.28 1.856 2.432 3.776 4.064 5.312 0.288 0.288 0.416 0.672 0.704 0.928l127.264 111.008c13.248 11.616 33.344 10.144 44.832-3.232s10.048-33.568-3.232-45.12l-103.328-90.176c1.408-0.608 2.912-0.864 4.256-1.728l427.744-276.896 427.744 276.896c1.344 0.864 2.848 1.088 4.288 1.696l-103.456 90.24c-13.248 11.584-14.688 31.776-3.2 45.152 11.488 13.344 31.552 14.848 44.832 3.232l127.296-111.072c0.32-0.256 0.416-0.64 0.704-0.928 1.664-1.536 2.816-3.456 4.096-5.344 1.088-1.568 2.4-2.976 3.168-4.704 0.768-1.664 0.96-3.52 1.408-5.312 0.608-2.272 1.28-4.448 1.376-6.784 0-0.416 0.224-0.736 0.224-1.12v-480.032c0-52.928-42.752-96-95.328-96zM958.016 444.672l-431.904-279.584c-5.248-3.392-11.2-5.088-17.184-5.088s-11.968 1.696-17.184 5.088l-429.728 278.176v-411.264c0-17.664 16.224-32 33.76-32h826.304c17.504 0 35.936 14.336 35.936 32v412.672zM621.408 537.248c-26.24 10.496-42.592 31.712-47.008 57.6-19.2-11.744-41.44-18.88-65.472-18.88-70.112 0-127.136 57.44-127.136 128.032 0 70.56 57.024 128 127.136 128 24.352 0 46.88-7.296 66.24-19.296 4.896 11.328 16.064 19.296 29.088 19.296 17.568 0 31.776-14.336 31.776-32v-192.032c0-2.656 0-7.68 8.864-11.232 10.592-4.224 25.408-2.144 31.584 4.448 24.768 26.368 24 60.16 23.328 90.016l-0.192 12.8c0 105.888-85.536 192-190.688 192s-190.688-86.112-190.688-192c0-105.888 85.536-192.032 190.688-192.032 17.536 0 31.776-14.336 31.776-32s-14.24-32-31.776-32c-140.192 0-254.24 114.848-254.24 256.032 0 141.152 114.048 256 254.24 256s254.24-114.848 254.24-256l0.192-11.36c0.736-33.632 2.016-89.92-40.64-135.392-24.32-25.92-65.952-34.144-101.312-20zM508.928 768c-35.072 0-63.584-28.704-63.584-64 0-35.328 28.512-64 63.584-64 35.040 0 63.552 28.672 63.552 64 0 35.296-28.512 64-63.552 64z" />
<glyph unicode="&#xe85c;" glyph-name="email-ban" data-tags="email-ban" d="M992 384c-17.664 0-32 14.336-32 32v309.856l-427.168-366.176c-6.016-5.12-13.408-7.68-20.832-7.68s-14.816 2.56-20.832 7.68l-427.168 366.176v-501.856c0-17.664 14.368-32 32-32h544c17.664 0 32-14.336 32-32s-14.336-32-32-32h-544c-52.928 0-96 43.072-96 96v512c0 52.928 43.072 96 96 96h832c52.928 0 96-43.072 96-96v-320c0-17.664-14.336-32-32-32zM113.184 768l398.816-341.856 398.816 341.856h-797.632zM864 384c88.224 0 160-71.808 160-160 0-88.224-71.776-160-160-160s-160 71.776-160 160c0 88.192 71.776 160 160 160zM864 320c-14.784 0-28.608-3.648-41.12-9.632l127.488-127.52c5.984 12.544 9.632 26.368 9.632 41.152 0 52.928-43.072 96-96 96zM864 128c14.752 0 28.608 3.616 41.12 9.6l-127.52 127.52c-5.984-12.512-9.6-26.336-9.6-41.12 0-52.928 43.072-96 96-96z" />
<glyph unicode="&#xe85d;" glyph-name="email-check" data-tags="email-check" d="M988.096 416c-17.6 0-28.096 14.336-28.096 32v281.12l-429.472-369.408c-5.952-5.12-13.376-7.712-20.736-7.712-7.392 0-14.816 2.592-20.736 7.712l-425.696 366.176v-501.888c0-17.632 14.272-32 31.872-32h446.432c17.632 0 31.904-14.336 31.904-32s-14.272-32-31.904-32h-446.432c-52.736 0-95.648 43.072-95.648 96v512c0 52.928 42.912 96 95.648 96h829.088c52.768 0 95.68-43.072 95.68-96v-288c0-17.664-14.272-32-31.904-32zM509.792 426.144l397.44 341.856h-794.88l397.44-341.856zM691.52 244.928l104.064-102.112 168.256 197.952c11.456 13.472 31.616 15.008 44.992 3.584 13.376-11.488 14.976-31.68 3.52-45.12l-190.368-224c-5.728-6.752-13.984-10.784-22.848-11.2-0.448 0-0.96-0.032-1.408-0.032-8.32 0-16.32 3.264-22.304 9.12l-128.48 126.080c-12.608 12.32-12.864 32.576-0.512 45.248 12.256 12.608 32.544 12.896 45.088 0.48z" />
<glyph unicode="&#xe85e;" glyph-name="email-close" data-tags="email-close" d="M938.176 192l73.184-73.376c12.448-12.48 12.448-32.736 0-45.248-6.24-6.272-14.4-9.376-22.56-9.376s-16.352 3.104-22.56 9.376l-73.184 73.376-73.152-73.376c-6.24-6.272-14.4-9.376-22.56-9.376s-16.32 3.104-22.56 9.376c-12.48 12.512-12.48 32.768 0 45.248l73.152 73.376-73.152 73.376c-12.48 12.512-12.48 32.736 0 45.248 12.448 12.512 32.64 12.512 45.12 0l73.152-73.376 73.184 73.376c12.448 12.512 32.64 12.512 45.12 0 12.448-12.512 12.448-32.736 0-45.248l-73.184-73.376zM988.8 384c-17.632 0-28.8 14.336-28.8 32v312.512l-429.056-368.832c-5.984-5.12-13.376-7.68-20.768-7.68-7.424 0-14.784 2.56-20.768 7.68l-425.952 366.176v-501.856c0-17.664 14.304-32 31.904-32h606.272c17.6 0 31.904-14.336 31.904-32s-14.304-32-31.904-32h-606.272c-52.8 0-95.712 43.072-95.712 96v512c0 52.928 42.912 96 95.712 96h829.6c52.8 0 95.744-43.072 95.744-96v-320c0-17.664-14.304-32-31.904-32zM112.512 768l397.664-341.856 397.664 341.856h-795.328z" />
<glyph unicode="&#xe85f;" glyph-name="email-delete" data-tags="email-delete" d="M992 320c-17.664 0-32 14.336-32 32v341.856l-427.168-366.144c-6.016-5.152-13.408-7.712-20.832-7.712s-14.816 2.56-20.832 7.712l-427.168 366.144v-501.856c0-17.632 14.368-32 32-32h512c17.664 0 32-14.304 32-32 0-17.664-14.336-32-32-32h-512c-52.928 0-96 43.072-96 96v512c0 52.928 43.072 96 96 96h832c52.928 0 96-43.072 96-96v-352c0-17.664-14.336-32-32-32zM512 394.144l398.848 341.856h-797.696l398.848-341.856zM736 256h256c17.664 0 32-14.336 32-32s-14.336-32-32-32h-256c-17.664 0-32 14.336-32 32s14.336 32 32 32z" />
<glyph unicode="&#xe860;" glyph-name="email-edit" data-tags="email-edit" d="M992 512c-17.664 0-32 14.336-32 32v181.856l-427.168-366.176c-6.016-5.12-13.408-7.68-20.832-7.68s-14.816 2.56-20.832 7.68l-427.168 366.144v-501.824c0-17.664 14.368-32 32-32h416c17.664 0 32-14.336 32-32s-14.336-32-32-32h-416c-52.928 0-96 43.072-96 96v512c0 52.928 43.072 96 96 96h832c52.928 0 96-43.072 96-96v-192c0-17.664-14.336-32-32-32zM512 426.144l398.816 341.856h-797.632l398.816-341.856zM663.744 216.8c0.544 1.792 1.28 3.456 2.144 5.184 1.152 2.208 2.432 4.192 4.032 6.048 0.544 0.64 0.768 1.472 1.408 2.112l187.296 187.328c0.416 0.416 0.96 0.544 1.376 0.928 0.448 0.512 0.64 1.184 1.12 1.696 37.184 37.152 97.696 37.152 134.88 0 18.048-18.048 28-42.016 27.968-67.552 0-25.472-9.952-49.408-28-67.424-0.416-0.416-0.992-0.576-1.44-0.96-0.416-0.48-0.544-1.088-1.024-1.536l-187.296-187.424c-0.864-0.864-1.952-1.184-2.88-1.92-1.44-1.152-2.912-2.112-4.576-3.040-2.176-1.184-4.352-2.144-6.72-2.784-0.832-0.224-1.504-0.8-2.368-0.992l-111.52-21.888c-2.048-0.384-4.096-0.576-6.144-0.576-8.416 0-16.576 3.296-22.624 9.376-7.52 7.52-10.816 18.336-8.768 28.768l21.856 111.584c0.224 1.12 0.96 1.984 1.28 3.072zM767.904 147.424l180.32 180.448c0.448 0.448 1.056 0.576 1.504 0.992 0.448 0.48 0.576 1.12 1.056 1.568 5.92 5.92 9.184 13.76 9.184 22.176 0 8.384-3.264 16.256-9.216 22.208-12.224 12.256-32.16 12.224-44.384 0-0.416-0.416-0.992-0.544-1.408-0.96-0.448-0.48-0.608-1.12-1.088-1.632l-180.512-180.512-10.784-55.136 55.328 10.848z" />
<glyph unicode="&#xe861;" glyph-name="email-forward" data-tags="email-forward" d="M1018.4 243.744c-1.44-3.488-3.616-6.528-6.144-9.28-0.288-0.32-0.416-0.768-0.736-1.088l-127.616-128c-6.24-6.24-14.4-9.376-22.56-9.376-8.192 0-16.352 3.136-22.56 9.376-12.48 12.48-12.48 32.736 0 45.248l73.152 73.376h-242.048c-17.632 0-31.904 14.336-31.904 32s14.272 32 31.904 32h242.048l-73.152 73.376c-12.48 12.512-12.48 32.736 0 45.248 12.448 12.512 32.64 12.512 45.12 0l127.552-127.936c2.976-2.976 5.344-6.528 6.944-10.464 1.6-3.872 2.4-7.936 2.432-12.032 0-0.064 0.032-0.128 0.032-0.192 0 0 0 0 0 0 0-4.16-0.832-8.32-2.464-12.256zM988.96 416c-17.6 0-28.96 14.336-28.96 32v248.384l-428.896-368.672c-5.984-5.12-13.376-7.712-20.768-7.712s-14.784 2.592-20.768 7.712l-425.952 366.144v-501.856c0-17.632 14.336-32 31.904-32h542.464c17.6 0 31.904-14.336 31.904-32s-14.304-32-31.904-32h-542.464c-52.768 0-95.712 43.072-95.712 96v512c0 52.928 42.944 96 95.712 96h829.632c52.768 0 95.712-43.072 95.712-96v-256c0-17.664-14.272-32-31.904-32zM112.672 736l397.664-341.856 397.696 341.856h-795.36z" />
<glyph unicode="&#xe862;" glyph-name="email-in" data-tags="email-in" d="M988.96 480c-17.6 0-28.96 14.336-28.96 32v216.384l-428.896-368.672c-5.984-5.152-13.344-7.712-20.768-7.712-7.392 0-14.784 2.56-20.768 7.712l-425.952 366.144v-501.856c0-17.632 14.336-32 31.904-32h574.368c17.632 0 31.904-14.336 31.904-32s-14.272-32-31.904-32h-574.368c-52.768 0-95.712 43.072-95.712 96v512c0 52.928 42.944 96 95.712 96h829.632c52.768 0 95.712-43.072 95.712-96v-224c0-17.664-14.272-32-31.904-32zM112.672 768l397.664-341.856 397.696 341.856h-795.36zM838.784 438.624c6.048 6.080 13.92 9.056 21.856 9.248 0.256 0 0.448 0.128 0.704 0.128 0.448 0 0.832-0.224 1.28-0.256 3.712-0.16 7.392-0.768 10.88-2.208 3.904-1.6 7.392-3.936 10.336-6.848 0-0.032 0.032-0.032 0.064-0.064l127.616-128c12.48-12.512 12.48-32.768 0-45.248-6.24-6.272-14.4-9.376-22.56-9.376s-16.32 3.104-22.56 9.376l-73.152 73.376v-242.752c0-17.664-14.304-32-31.904-32-17.632 0-29.344 14.336-29.344 32v245.312l-75.744-75.936c-12.448-12.512-32.64-12.512-45.12 0-12.448 12.48-12.448 32.736 0 45.248l127.648 128z" />
<glyph unicode="&#xe863;" glyph-name="email-letter" data-tags="email-letter" horiz-adv-x="1020" d="M923.94-63.583h-827.856c-52.675 0-95.539 43.057-95.539 95.956v479.748c0 0.417 0.224 0.737 0.224 1.122 0.096 2.308 0.769 4.424 1.347 6.669 0.481 1.859 0.673 3.751 1.475 5.45 0.737 1.667 1.988 3.014 3.014 4.52 1.347 1.956 2.533 3.943 4.264 5.546 0.256 0.256 0.385 0.609 0.673 0.866l140.039 121.957c2.469 2.148 5.322 3.366 8.175 4.617v137.121c0 17.665 14.267 31.996 31.836 31.996h159.627l137.923 120.097c11.958 10.42 29.752 10.42 41.71 0l137.794-120.001c0.032-0.032 0.064-0.064 0.096-0.096h159.659c17.601 0 31.836-14.331 31.836-31.996v-135.582c1.026-0.705 2.18-0.962 3.142-1.795l145.072-126.317c0.289-0.256 0.417-0.609 0.673-0.866 1.731-1.603 2.917-3.591 4.264-5.546 1.026-1.507 2.276-2.853 3.046-4.52 0.769-1.699 0.962-3.591 1.443-5.418 0.577-2.244 1.282-4.392 1.347-6.701 0.032-0.385 0.224-0.705 0.224-1.122v-479.748c0-52.899-42.832-95.956-95.507-95.956zM77.169 508.818c1.411-0.609 2.917-0.866 4.264-1.763l78.323-50.559v124.201l-82.587-71.879zM510.012 885.621l-61.587-53.637h123.175l-61.587 53.637zM799.515 769.563h-430.183c-1.859-0.353-3.687-0.994-5.578-0.994-1.603 0-3.078 0.737-4.649 0.994h-136.672v-352.661c0-0.256-0.128-0.513-0.16-0.769l287.74-185.788 289.503 186.943v352.277zM860.237 580.697v-124.201l78.323 50.559c1.347 0.898 2.853 1.122 4.296 1.731l-82.619 71.911zM959.816 444.73l-432.619-279.34c-5.226-3.398-11.221-5.065-17.184-5.065-5.995 0-11.99 1.667-17.216 5.065l-430.663 278.089v-411.299c0-17.633 16.383-31.772 33.952-31.772h827.856c17.537 0 35.875 14.139 35.875 31.772v412.55z" />
<glyph unicode="&#xe864;" glyph-name="email-locked" data-tags="email-locked" d="M992 32h-320c-17.664 0-32 14.336-32 32v224c0 17.664 14.336 32 32 32h32v32c0 70.592 57.408 128 128 128s128-57.408 128-128v-32h32c17.664 0 32-14.336 32-32v-224c0-17.664-14.336-32-32-32zM896 352c0 35.296-28.704 64-64 64s-64-28.704-64-64v-32h128v32zM960 256h-256v-160h256v160zM992 480c-17.664 0-32 14.336-32 32v245.856l-427.168-366.176c-6.016-5.12-13.408-7.68-20.832-7.68s-14.816 2.56-20.832 7.68l-427.168 366.176v-501.856c0-17.632 14.368-32 32-32h448c17.664 0 32-14.336 32-32s-14.336-32-32-32h-448c-52.928 0-96 43.072-96 96v512c0 52.928 43.072 96 96 96h832c52.928 0 96-43.072 96-96v-256c0-17.664-14.336-32-32-32zM113.184 800l398.816-341.856 398.816 341.856h-797.632z" />
<glyph unicode="&#xe865;" glyph-name="email-new" data-tags="email-new" d="M992 384c-17.664 0-32 14.336-32 32v341.856l-427.168-366.176c-6.016-5.12-13.408-7.68-20.832-7.68s-14.816 2.56-20.832 7.68l-427.168 366.176v-501.856c0-17.664 14.368-32 32-32h512c17.664 0 32-14.336 32-32s-14.336-32-32-32h-512c-52.928 0-96 43.072-96 96v512c0 52.928 43.072 96 96 96h832c52.928 0 96-43.072 96-96v-352c0-17.664-14.336-32-32-32zM512 458.144l398.816 341.856h-797.632l398.816-341.856zM736 224h96v96c0 17.664 14.336 32 32 32s32-14.336 32-32v-96h96c17.664 0 32-14.336 32-32s-14.336-32-32-32h-96v-96c0-17.664-14.336-32-32-32s-32 14.336-32 32v96h-96c-17.664 0-32 14.336-32 32s14.336 32 32 32z" />
<glyph unicode="&#xe866;" glyph-name="email-open" data-tags="email-open" horiz-adv-x="1020" d="M1019.48 32.405c0-52.899-42.864-95.956-95.539-95.956h-827.856c-52.675 0-95.507 43.057-95.507 95.956v479.78c0 0.385 0.192 0.705 0.224 1.122 0.064 2.276 0.769 4.392 1.314 6.604 0.481 1.859 0.705 3.783 1.475 5.482 0.737 1.667 1.988 3.014 3.046 4.52 1.314 1.956 2.533 3.943 4.232 5.546 0.289 0.256 0.385 0.641 0.705 0.866l477.599 415.82c11.958 10.387 29.72 10.387 41.678 0l477.632-415.82c0.289-0.224 0.385-0.609 0.673-0.866 1.699-1.603 2.917-3.591 4.232-5.514 1.058-1.539 2.308-2.885 3.046-4.553 0.769-1.699 0.994-3.591 1.475-5.418 0.545-2.244 1.25-4.392 1.347-6.701 0-0.385 0.224-0.705 0.224-1.090v-479.78zM62.132 32.18c0-17.633 16.415-31.74 33.952-31.74h827.856c17.569 0 35.875 14.106 35.875 31.74v412.582l-432.587-279.34c-5.226-3.366-11.221-5.065-17.216-5.065s-11.958 1.699-17.216 5.065l-430.663 278.121v-411.363zM510.012 885.653l-432.812-376.803c1.411-0.609 2.917-0.866 4.264-1.731l428.548-276.743 428.548 276.743c1.379 0.866 2.885 1.090 4.296 1.699l-432.844 376.835z" />
<glyph unicode="&#xe867;" glyph-name="email-out" data-tags="email-out" d="M992 320c-17.664 0-32 14.336-32 32v373.856l-427.168-366.144c-6.016-5.152-13.408-7.712-20.832-7.712s-14.816 2.56-20.832 7.712l-427.168 366.144v-501.856c0-17.632 14.368-32 32-32h480c17.664 0 32-14.336 32-32s-14.336-32-32-32h-480c-52.928 0-96 43.072-96 96v512c0 52.928 43.072 96 96 96h832c52.928 0 96-43.072 96-96v-384c0-17.664-14.336-32-32-32zM113.184 768l398.816-341.856 398.816 341.856h-797.632zM726.624 246.624l73.376-73.376v242.752c0 17.664 14.336 32 32 32s32-14.336 32-32v-242.752l73.376 73.376c12.512 12.48 32.736 12.48 45.248 0 12.512-12.512 12.512-32.768 0-45.248l-128-128c-0.48-0.48-1.12-0.64-1.632-1.088-2.624-2.336-5.44-4.448-8.736-5.824-3.936-1.6-8.096-2.464-12.256-2.464s-8.32 0.864-12.256 2.464c-3.296 1.376-6.144 3.52-8.768 5.856-0.512 0.416-1.12 0.576-1.6 1.056l-128 128c-12.512 12.48-12.512 32.736 0 45.248 12.512 12.48 32.736 12.48 45.248 0z" />
</font>
</defs>
</svg>
